Тринадцатый этаж / The Thirteenth Floor (1999) BDRip 720p | D, P2, A

 
Автор Сообщение

sergej644 ®

Пол:

Стаж: 4 года 11 месяцев

Сообщений: 6042

Откуда: Soviet Union



Награды: Нет

Торрент-статистика

Создавать темы 31-Янв-2015 23:08

[Цитировать]

Информация о фильме
Название: Тринадцатый этаж
Оригинальное название: The Thirteenth Floor
Год выхода: 1999
Жанр: Фантастика, триллер, детектив
Режиссер: Джозеф Руснак
В ролях: Крэйг Бирко, Армин Мюллер-Шталь, Гретхен Мол, Винсент Д`Онофрио, Дэннис Хэйсберт, Steven Schub, Джереми Робертс, Риф Хаттон, Леон Риппи, Джанет МакЛахлан
О фильме:
Молодой ученый Даглас Холл (Крэйг Бирко) узнает, что его бывший босс мистер Фуллер (Армин Мюллер-Шталь) убит. Вместе они работали над созданием виртуальной реальности, воссоздающей мир Лос-Анджелеса периода 1937 года, куда мистер Фуллер регулярно наведывался, чтобы вспомнить молодость и развлечься. Перед смертью он успел оставить для Дагласа письмо, содержащее серьезную тайну. Молодой человек отправляется за ним в искусственный мир, в создании которого он участвовал. Следствие по делу об убийстве ведет полицейский инспектор (Хэйсберт), подозрение падает на Дагласа Холла. Неожиданно в сюжете появляется дочь Фуллера Джейн (Мол), о которой Даглас, проработавший с ее отцом шесть лет, ничего не знал. Она предоставляет Дагласу алиби, утверждая, что ночь убийства они провели вместе. Молодые люди влюбляются друг в друга, обоим кажется, что они уже были знакомы в другой жизни.

Страна: Германия, США
Студия: Columbia Pictures, Centropolis Film Productions
Продолжительность: 01:40:30
Перевод: Дублированный, профессиональный двухголосый, авторский
Файл
Кодек: x264
Качество: BDRip 720p
Видео: MPEG-4 AVC, 3000 Кбит/с, 1280х534, 23.976 кадр/с
Звук:
Аудио #1: Русский (DTS, 6 ch, 1509 Кбит/с) / Дублированный (студия "CPIG")
Аудио #2: Русский (AC3, 6 ch, 384 Кбит/с) / Профессиональный двухголосый (R5 - И.Тарадайкин и Л.Германова)
Аудио #3: Русский (AC3, 6 ch, 448 Кбит/с) / Авторский одноголосый (Юрий Живов)
Аудио #4: Русский (AC3, 6 ch, 448 Кбит/с) / Авторский одноголосый (Дмитрий Есарев)
Аудио #5: Украинский (AC3, 2 ch, 192 Кбит/с) / Профессиональный многоголосый (ТК - "НТН")
Аудио #6: Английский (DTS, 6 ch, 1509 Кбит/с)
Субтитры: Русские, английские
Семпл

Знаете ли вы, что...

- «Тринадцатый этаж» вышел на экраны одновременно со знаменитой «Матрицей» братьев Вачовски, но на ее фоне оказался практически незамеченным.
- В 2000-ом году картина номинировалась на премию «Сатурн» (Saturn Award) в категории «лучший научно-фантастический фильм».
- Картина снималась в Лос-Анджелесе.
- Картина является экранизацией романа американского писателя Дэниела Фрэнсиса Гэлоуи (Daniel Francis Galouye, 1920-1976) «Симулакрон-3» (Simulacron-3), переизданный в Германии как «13-ый этаж» (The 13th Floor).
- Роман «Симулякрон-3» был впервые опубликован в США в 1964 году и является одним из самых первых литературных описаний виртуальной реальности.
- В виртуальном 1937 году Фуллер упоминает первую мировую войну. Однако в 1937 году, когда еще не было второй мировой войны, первая мировая война называлась иначе - великая война. Тем не менее, это можно считать ошибкой не создателей фильма, а создателей программы, имитирующей Лос-Анджелес 1937 года. Ряд других анахронизмов виртуального Лос-Анджелеса - например, слишком новые деньги и патрульная машина, - также можно воспринимать как ошибки программирования.
- В финале фильма мы видим первую полосу газеты, датированную понедельником, 21 июня 2024 года. Однако в 2024 году 21 июня упадет на пятницу. Тем не менее, ошибки здесь нет: ведь по ходу фильма выясняется, что наш мир, который мы считаем настоящим, на самом деле - компьютерная имитация, симулякрон.

Инфо-файл

------------------------------------------------------------------
x264 [info]: frame I:1025 Avg QP:16.12 size: 77002
x264 [info]: frame P:28982 Avg QP:18.77 size: 30795
x264 [info]: frame B:114569 Avg QP:20.13 size: 11234
------------------------------------------------------------------
General
Unique ID : 179442775097748290649955144369411876829 (0x86FF6BDFFBD29C8FA05A6759F1C667DD)
Complete name : D:µTorrent загрузкиThe.Thirteenth.Floor.1999.BDRip.720p.MediaClub.mkv
Format : Matroska
Format version : Version 4 / Version 2
File size : 5.25 GiB
Duration : 1h 40mn
Overall bit rate : 7 484 Kbps
Movie name : release MediaClub - MINION
Encoded date : UTC 2014-07-06 18:00:12
Writing application : mkvmerge v6.9.1 ('Blue Panther') 64bit built on Apr 18 2014 18:23:38
Writing library : libebml v1.3.0 + libmatroska v1.4.1
Video
ID : 1
Format : AVC
Format/Info : Advanced Video Codec
Format profile : High@L4.1
Format settings, CABAC : Yes
Format settings, ReFrames : 9 frames
Codec ID : V_MPEG4/ISO/AVC
Duration : 1h 40mn
Bit rate : 2 845 Kbps
Nominal bit rate : 3 000 Kbps
Width : 1 280 pixels
Height : 534 pixels
Display aspect ratio : 2.40:1
Frame rate mode : Constant
Frame rate : 23.976 fps
Color space : YUV
Chroma subsampling : 4:2:0
Bit depth : 8 bits
Scan type : Progressive
Bits/(Pixel*Frame) : 0.174
Stream size : 2.00 GiB (38%)
Title : The Thirteenth Floor 1999 BDRip 720p - [MediaClub - MINION]
Writing library : x264 core 142 r2431 ac76440
Encoding settings : cabac=1 / ref=9 / deblock=1:-3:-3 / analyse=0x3:0x133 / me=umh / subme=11 / psy=1 / psy_rd=1.00:0.10 / mixed_ref=1 / me_range=48 / chroma_me=1 / trellis=2 / 8x8dct=1 / cqm=0 / deadzone=21,11 / fast_pskip=0 / chroma_qp_offset=-3 / threads=6 / lookahead_threads=1 / sliced_threads=0 / nr=0 / decimate=0 / interlaced=0 / bluray_compat=0 / constrained_intra=0 / bframes=10 / b_pyramid=2 / b_adapt=2 / b_bias=0 / direct=3 / weightb=1 / open_gop=0 / weightp=2 / keyint=240 / keyint_min=23 / scenecut=40 / intra_refresh=0 / rc=2pass / mbtree=0 / bitrate=3000 / ratetol=1.0 / qcomp=0.60 / qpmin=10 / qpmax=51 / qpstep=4 / cplxblur=20.0 / qblur=0.5 / ip_ratio=1.40 / pb_ratio=1.30 / aq=1:1.00
Language : English
Default : Yes
Forced : No
Audio #1
ID : 2
Format : DTS
Format/Info : Digital Theater Systems
Mode : 16
Format settings, Endianness : Big
Codec ID : A_DTS
Duration : 1h 40mn
Bit rate mode : Constant
Bit rate : 1 509 Kbps
Channel(s) : 6 channels
Channel positions : Front: L C R, Side: L R, LFE
Sampling rate : 48.0 KHz
Bit depth : 16 bits
Compression mode : Lossy
Stream size : 1.06 GiB (20%)
Title : DUB - студия "CPIG"
Language : Russian
Default : Yes
Forced : No
Audio #2
ID : 3
Format : AC-3
Format/Info : Audio Coding 3
Mode extension : CM (complete main)
Format settings, Endianness : Big
Codec ID : A_AC3
Duration : 1h 40mn
Bit rate mode : Constant
Bit rate : 384 Kbps
Channel(s) : 6 channels
Channel positions : Front: L C R, Side: L R, LFE
Sampling rate : 48.0 KHz
Bit depth : 16 bits
Compression mode : Lossy
Stream size : 276 MiB (5%)
Title : DVO - R5 (И.Тарадайкин и Л.Германова)
Language : Russian
Default : No
Forced : No
Audio #3
ID : 4
Format : AC-3
Format/Info : Audio Coding 3
Mode extension : CM (complete main)
Format settings, Endianness : Big
Codec ID : A_AC3
Duration : 1h 40mn
Bit rate mode : Constant
Bit rate : 448 Kbps
Channel(s) : 6 channels
Channel positions : Front: L C R, Side: L R, LFE
Sampling rate : 48.0 KHz
Bit depth : 16 bits
Compression mode : Lossy
Stream size : 322 MiB (6%)
Title : AVO - Юрий Живов
Language : Russian
Default : No
Forced : No
Audio #4
ID : 5
Format : AC-3
Format/Info : Audio Coding 3
Mode extension : CM (complete main)
Format settings, Endianness : Big
Codec ID : A_AC3
Duration : 1h 40mn
Bit rate mode : Constant
Bit rate : 448 Kbps
Channel(s) : 6 channels
Channel positions : Front: L C R, Side: L R, LFE
Sampling rate : 48.0 KHz
Bit depth : 16 bits
Compression mode : Lossy
Stream size : 322 MiB (6%)
Title : AVO - Дмитрий Есарев
Language : Russian
Default : No
Forced : No
Audio #5
ID : 6
Format : AC-3
Format/Info : Audio Coding 3
Mode extension : CM (complete main)
Format settings, Endianness : Big
Codec ID : A_AC3
Duration : 1h 40mn
Bit rate mode : Constant
Bit rate : 192 Kbps
Channel(s) : 2 channels
Channel positions : Front: L R
Sampling rate : 48.0 KHz
Bit depth : 16 bits
Compression mode : Lossy
Stream size : 138 MiB (3%)
Title : MVO - телеканал "НТН"
Language : Ukrainian
Default : No
Forced : No
Audio #6
ID : 7
Format : DTS
Format/Info : Digital Theater Systems
Mode : 16
Format settings, Endianness : Big
Codec ID : A_DTS
Duration : 1h 40mn
Bit rate mode : Constant
Bit rate : 1 509 Kbps
Channel(s) : 6 channels
Channel positions : Front: L C R, Side: L R, LFE
Sampling rate : 48.0 KHz
Bit depth : 16 bits
Compression mode : Lossy
Stream size : 1.06 GiB (20%)
Title : Оригинал
Language : English
Default : No
Forced : No
Text #1
ID : 8
Format : UTF-8
Codec ID : S_TEXT/UTF8
Codec ID/Info : UTF-8 Plain Text
Language : Russian
Default : No
Forced : No
Text #2
ID : 9
Format : UTF-8
Codec ID : S_TEXT/UTF8
Codec ID/Info : UTF-8 Plain Text
Language : English
Default : No
Forced : No
Menu
00:00:00.000 : en:Start
00:06:51.702 : en:Fuller Stumbles
00:12:55.649 : en:Detective McBain
00:19:57.321 : en:Jane Fuller
00:28:39.634 : en:Jason Whitney
00:36:42.909 : en:Hall is Confronted
00:42:00.017 : en:Consciousness Transfer
00:46:25.532 : en:Download Completed
00:51:46.853 : en:Grierson's Antique Store
00:59:19.472 : en:Wilshire Grand Hotel
01:03:10.870 : en:Connection Terminated
01:09:22.032 : en:Tom Jones
01:17:07.164 : en:Deja vu
01:22:25.982 : en:Under Arrest
01:28:17.125 : en:Douglas' Alibi
01:34:09.977 : en:Grierson's Memory

Скриншоты


[Профиль] [ЛС]
Кто просматривает тему:

Форум Тема Автор Размер
Фильмы 2010 года 13 / Тринадцать / Тринадцатый / 13 (Гела Баблуани / Géla Babluani) [2010, США, триллер, драма, HDRip] AVO (Гаврилов) TorrentFilm 1.38 GB
Фильмы 2011 года Напортачили. Полный облом! / Тринадцатый этаж / Botched (Кит Райан / Kit Ryan) [2007, Германия, Ирландия, Великобритания, США, чёрная комедия, криминал, ужасы, WEB-DLRip] MVO + Original Eng TorrentFilm 1.71 GB
Фильмы 2012 года Тринадцатилетняя / Little Thirteen (2012) HDRip | A BOSS 1.46 GB
R.G.TorrentFilm Video Тринадцатилетняя / Little Thirteen (Кристиан Кландт / Christian Klandt) [2012, Германия, Драма, HDRip] AVO (Юрий Сербин) Один 777 703 MB
Фильмы (HD Rips | 720p, 1080p) Тринадцатый этаж / The Thirteenth Floor (1999) BDRip 1080p | D, P2, A sergej644 7.36 GB
Фильмы (HD Rips | 720p, 1080p) Тринадцатый этаж / The Thirteenth Floor (1999) BDRip 720p sergej644 2.91 GB
Фильмы (HD Rips | 720p, 1080p) Тринадцатый этаж / The Thirteenth Floor (1999) BDRip 720p | D sergej644 5.91 GB
Фильмы (HD Rips | 720p, 1080p) Тринадцатый этаж / The Thirteenth Floor (1999) BDRip 720p от HELLYWOOD | D, P, P2, A Russian Mafia 5.76 GB
Показать сообщения:    

Текущее время: Сегодня 12:32

Часовой пояс: GMT



Вы не можете начинать темы
Вы не можете отвечать на сообщения
Вы не можете редактировать свои сообщения
Вы не можете удалять свои сообщения
Вы не можете голосовать в опросах
Вы не можете прикреплять файлы к сообщениям
Вы не можете скачивать файлы