Тринадцатый этаж / The Thirteenth Floor (1999) BDRip 720p

 
Автор Сообщение

sergej644 ®

Пол:

Стаж: 4 года 11 месяцев

Сообщений: 6043

Откуда: Soviet Union



Награды: Нет

Торрент-статистика

Создавать темы 31-Янв-2015 00:55

[Цитировать]

Страна: Германия, США
Производство: Centropolis Film Productions
Жанр: фантастика, триллер, детектив
Год выпуска: 1999
Продолжительность: 01:40:30
Перевод: Профессиональный (полное дублирование)
Оригинальная аудиодорожка: английский
Cубтитры: русский, английский
Режиссер: Йозеф Руснак / Josef Rusnak
В ролях:
Крэйг Бирко, Гретхен Мол, Армин Мюллер-Шталь, Винсент Д’Онофрио, Деннис Хейсбёрт, Стивен Шуб, Джереми Робертс, Риф Хаттон, Леон Риппи, Джанет МакЛахлан...
Роли дублировали:
Владимир Антоник, Ольга Голованова, Борис Кумаритов, Андрей Гриневич, Владимир Герасимов...
Описание:
На тринадцатом этаже компьютерной корпорации была разработана совершенная модель виртуальной реальности, создание которой повлекло за собой цепь таинственных убийств. Разгадать загадку можно, лишь погрузившись в иное измерение, где может быть ответ на многие вопросы, а может быть — страшная нереальность…-
-Исходник: BDRemux 1080p
Тип релиза: BDRip 720p
Контейнер: MKV
Видео: 1280x532 (2,40:1), 23,976 fps, H264 ~ 3245 kbps avg, 0.199 bit/pixel
Аудио: 48 kHz, Dolby Digital AC3 5.1, 448 kbps DUB
Аудио: 48 kHz, Dolby Digital AC3 5.1, 448 kbps Английский
Оригинальная навигация по главам: есть
Субтитры: SoftSub (srt)

MediaInfo

Общее
Полное имя : Trinadcatyy.etazh.1999.BDRip720p_[New-team]_by_AVP_Studio.mkv
Формат : Matroska
Версия формата : Version 4 / Version 2
Размер файла : 2,91 Гбайт
Продолжительность : 1 ч. 40 м.
Общий поток : 4141 Кбит/сек
Название фильма : Trinadcatyy.etazh.1999.BDRip720p_[New-team]_by_AVP_Studio
Дата кодирования : UTC 2014-07-27 19:14:25
Программа кодирования : mkvmerge v6.9.1 ('Blue Panther') 64bit built on Apr 18 2014 18:23:38
Библиотека кодирования : libebml v1.3.0 + libmatroska v1.4.1
Видео
Идентификатор : 1
Формат : AVC
Формат/Информация : Advanced Video Codec
Профиль формата : High@L4.1
Параметр CABAC формата : Да
Параметр ReFrames формата : 8 кадров
Идентификатор кодека : V_MPEG4/ISO/AVC
Продолжительность : 1 ч. 40 м.
Битрейт : 3245 Кбит/сек
Ширина : 1280 пикселей
Высота : 532 пикселя
Соотношение сторон : 2,40:1
Режим частоты кадров : Постоянный
Частота кадров : 23,976 кадра/сек
Цветовое пространство : YUV
Субдискретизация насыщенности : 4:2:0
Битовая глубина : 8 бит
Тип развёртки : Прогрессивная
Бит/(Пиксели*Кадры) : 0.199
Размер потока : 2,22 Гбайт (76%)
Заголовок : Источник BDRemux
Библиотека кодирования : x264 core 138 r2356 a1d3d17
Настройки программы : cabac=1 / ref=8 / deblock=1:-3:-2 / analyse=0x3:0x113 / me=umh / subme=10 / psy=1 / psy_rd=1.00:0.05 / mixed_ref=1 / me_range=32 / chroma_me=1 / trellis=2 / 8x8dct=1 / cqm=0 / deadzone=21,11 / fast_pskip=0 / chroma_qp_offset=-3 / threads=6 / lookahead_threads=1 / sliced_threads=0 / nr=0 / decimate=0 / interlaced=0 / bluray_compat=0 / constrained_intra=0 / bframes=8 / b_pyramid=2 / b_adapt=2 / b_bias=0 / direct=3 / weightb=1 / open_gop=0 / weightp=2 / keyint=240 / keyint_min=24 / scenecut=40 / intra_refresh=0 / rc_lookahead=40 / rc=2pass / mbtree=1 / bitrate=3245 / ratetol=1.0 / qcomp=0.60 / qpmin=0 / qpmax=69 / qpstep=4 / cplxblur=20.0 / qblur=0.5 / ip_ratio=1.40 / aq=1:1.00
Язык : English
Default : Да
Forced : Нет
Аудио #1
Идентификатор : 2
Формат : AC-3
Формат/Информация : Audio Coding 3
Расширение режима : CM (complete main)
Параметр Endianness формата : Big
Идентификатор кодека : A_AC3
Продолжительность : 1 ч. 40 м.
Вид битрейта : Постоянный
Битрейт : 448 Кбит/сек
Каналы : 6 каналов
Расположение каналов : Front: L C R, Side: L R, LFE
Частота : 48,0 КГц
Битовая глубина : 16 бит
Метод сжатия : С потерями
Размер потока : 322 Мбайт (11%)
Заголовок : Источник BDRemux Dolby Digital 5,1 448 kbps DUB
Язык : Russian
Default : Да
Forced : Нет
Аудио #2
Идентификатор : 3
Формат : AC-3
Формат/Информация : Audio Coding 3
Расширение режима : CM (complete main)
Параметр Endianness формата : Big
Идентификатор кодека : A_AC3
Продолжительность : 1 ч. 40 м.
Вид битрейта : Постоянный
Битрейт : 448 Кбит/сек
Каналы : 6 каналов
Расположение каналов : Front: L C R, Side: L R, LFE
Частота : 48,0 КГц
Битовая глубина : 16 бит
Метод сжатия : С потерями
Размер потока : 322 Мбайт (11%)
Заголовок : Источник BDRemux Dolby Digital 5,1 448 kbps
Язык : English
Default : Нет
Forced : Нет
Текст #1
Идентификатор : 4
Формат : UTF-8
Идентификатор кодека : S_TEXT/UTF8
Идентификатор кодека/Информация : UTF-8 Plain Text
Заголовок : Источник BDRemux SoftSub (srt)
Язык : Russian
Default : Нет
Forced : Нет
Текст #2
Идентификатор : 5
Формат : UTF-8
Идентификатор кодека : S_TEXT/UTF8
Идентификатор кодека/Информация : UTF-8 Plain Text
Заголовок : Источник BDRemux SoftSub (srt)
Язык : English
Default : Нет
Forced : Нет
Меню
00:00:00.000 : ru: Start
00:06:51.702 : ru: Fuller Stumbles
00:12:55.649 : ru: Detective McBain
00:19:57.321 : ru: Jane Fuller
00:28:39.634 : ru: Jason Whitney
00:36:42.909 : ru: Hall is Confronted
00:42:00.017 : ru: Consciousness Transfer
00:46:25.532 : ru: Download Completed
00:51:46.853 : ru: Grierson's Antique Store
00:59:19.472 : ru: Wilshire Grand Hotel
01:03:10.870 : ru: Connection Terminated
01:09:22.032 : ru: Tom Jones
01:17:07.164 : ru: Deja vu
01:22:25.982 : ru: Under Arrest
01:28:17.125 : ru: Douglas' Alibi
01:34:09.977 : ru: Grierson's Memory

Скриншоты

[Профиль] [ЛС]
Кто просматривает тему:

Форум Тема Автор Размер
Фильмы 2010 года 13 / Тринадцать / Тринадцатый / 13 (Гела Баблуани / Géla Babluani) [2010, США, триллер, драма, HDRip] AVO (Гаврилов) TorrentFilm 1.38 GB
Фильмы 2011 года Напортачили. Полный облом! / Тринадцатый этаж / Botched (Кит Райан / Kit Ryan) [2007, Германия, Ирландия, Великобритания, США, чёрная комедия, криминал, ужасы, WEB-DLRip] MVO + Original Eng TorrentFilm 1.71 GB
Фильмы 2012 года Тринадцатилетняя / Little Thirteen (2012) HDRip | A BOSS 1.46 GB
R.G.TorrentFilm Video Тринадцатилетняя / Little Thirteen (Кристиан Кландт / Christian Klandt) [2012, Германия, Драма, HDRip] AVO (Юрий Сербин) Один 777 703 MB
Фильмы (HD Rips | 720p, 1080p) Тринадцатый этаж / The Thirteenth Floor (1999) BDRip 1080p | D, P2, A sergej644 7.36 GB
Фильмы (HD Rips | 720p, 1080p) Тринадцатый этаж / The Thirteenth Floor (1999) BDRip 720p | D sergej644 5.91 GB
Фильмы (HD Rips | 720p, 1080p) Тринадцатый этаж / The Thirteenth Floor (1999) BDRip 720p | D, P2, A sergej644 5.25 GB
Фильмы (HD Rips | 720p, 1080p) Тринадцатый этаж / The Thirteenth Floor (1999) BDRip 720p от HELLYWOOD | D, P, P2, A Russian Mafia 5.76 GB
Показать сообщения:    

Текущее время: Сегодня 20:26

Часовой пояс: GMT



Вы не можете начинать темы
Вы не можете отвечать на сообщения
Вы не можете редактировать свои сообщения
Вы не можете удалять свои сообщения
Вы не можете голосовать в опросах
Вы не можете прикреплять файлы к сообщениям
Вы не можете скачивать файлы