Треугольник / Triangle (Кристофер Смит / Christopher Smith) [2009 г., Великобритания, Австралия, триллер, драма, детектив, HDRip-AVC] DVO + MVO + AVO (Немахов) + Original (Eng) + Sub (Rus, Eng)

 
Автор Сообщение

TorrentFilm ®

Пол:

Стаж: 2 года

Сообщений: 7741



Награды: Нет

Торрент-статистика

Создавать темы 22-Мар-2015 00:01

[Цитировать]

-Треугольник / Triangle--Год выпуска: 2009Страна: Великобритания, АвстралияЖанр: триллер, драма, детектив-Продолжительность: 01:38:52Перевод №1: Профессиональный (двухголосый закадровый) R5 [лицензия]Перевод №2: Профессиональный (многоголосый закадровый) ТВ-3Перевод №3: Авторский (одноголосый закадровый) Ю. НемаховСубтитры: русские (notabenoid), английские [srt]Оригинальная аудиодорожка: английская [отдельным файлом]--Режиссер:Кристофер Смит / Christopher Smith-В ролях:Мелисса Джордж, Джошуа МакИвор, Джек Тейлор, Майкл Дорман, Генри Никсон, Рейчал Карпани, Эмма Ланг, Лиам Хемсворт, Брайан Пробетс-Описание:
Грег приглашает свою подругу Джесс, молодую мать-одиночку, провести день на яхте в кругу своих друзей. Начавшийся сильный шторм переворачивает судно, и оставшиеся в живых вынуждены дожидаться помощи, цепляясь за перевернутый корпус яхты. Спасение приходит в виде огромного океанического лайнера. Судно оказывается пустым, часы на борту остановились. Но они не одни на этом огромном корабле - за ними кто-то неустанно следит...
--Дополнительная информация:- -Сэмпл Рип НЕ совместим с бытовыми DVD-проигрывателями.--Качество видео: HDRip-AVC (Исходник: BDRip 1080p )
Формат видео: MKV
Видео: AVC (x264), 1 112x470 (2.37:1), 23.976 fps, ~ 2 855 kbps avg, 0.228 bit/pixel
Аудио №1: 48 kHz, AC3 Dolby Digital, 3/2 (L,C,R,l,r) + LFE ch, 448 kbps (DVO)
Аудио №2: 48 kHz, AC3 Dolby Digital, 3/2 (L,C,R,l,r) + LFE ch, 448 kbps (MVO)
Аудио №3: 48 kHz, AC3 Dolby Digital, 3/2 (L,C,R,l,r) + LFE ch, 448 kbps (Немахов)
=========================== Отдельно ==========================
Аудио №4: 48 kHz, AC3 Dolby Digital, 3/2 (L,C,R,l,r) + LFE ch, 448 kbps (Eng)-Главы: есть-

Скриншоты




Название

MediaInfo/loglog

x264 [info]: frame I:1008 Avg QP:16.09 size: 73778
x264 [info]: frame P:31703 Avg QP:19.62 size: 29592
x264 [info]: frame B:109652 Avg QP:21.21 size: 10073
x264 [info]: consecutive B-frames: 2.2% 3.4% 8.8% 20.4% 14.7% 43.4% 3.0% 1.2% 0.5% 0.4% 0.2% 1.3% 0.6%
x264 [info]: mb I I16..4: 4.9% 76.5% 18.6%
x264 [info]: mb P I16..4: 1.0% 15.0% 2.0% P16..4: 26.5% 32.8% 13.4% 2.1% 0.2% skip: 7.1%
x264 [info]: mb B I16..4: 0.1% 1.5% 0.2% B16..8: 36.7% 22.4% 4.1% direct: 5.0% skip:29.9% L0:42.5% L1:45.6% BI:12.0%
x264 [info]: 8x8 transform intra:82.2% inter:60.3%
x264 [info]: direct mvs spatial:98.6% temporal:1.4%
x264 [info]: coded y,uvDC,uvAC intra: 86.7% 72.3% 39.2% inter: 29.2% 19.6% 4.3%
x264 [info]: i16 v,h,dc,p: 25% 27% 5% 43%
x264 [info]: i8 v,h,dc,ddl,ddr,vr,hd,vl,hu: 13% 9% 9% 9% 13% 13% 12% 11% 11%
x264 [info]: i4 v,h,dc,ddl,ddr,vr,hd,vl,hu: 19% 9% 6% 7% 14% 14% 12% 9% 10%
x264 [info]: i8c dc,h,v,p: 31% 31% 22% 17%
x264 [info]: Weighted P-Frames: Y:4.7% UV:2.3%
x264 [info]: ref P L0: 49.2% 7.9% 15.4% 7.3% 5.4% 4.1% 3.3% 2.0% 1.6% 1.4% 1.2% 1.0% 0.1% 0.0%
x264 [info]: ref B L0: 75.1% 11.1% 5.2% 2.6% 1.8% 1.4% 1.1% 0.7% 0.5% 0.3% 0.2%
x264 [info]: ref B L1: 93.8% 6.2%
x264 [info]: kb/s:2855.24
General
Unique ID : 225456527179762288624706162157669183850 (0xA99D5901E77A1A599D5C01415B71F16A)
Complete name :\Treugolnik_(2009).HDRip-AVC\Treugolnik_(2009).HDRip-AVC.DVO.MVO.Eng.Sub_[All.Films][RG].mkv
Format : Matroska
Format version : Version 4 / Version 2
File size : 2.90 GiB
Duration : 1h 38mn
Overall bit rate : 4 202 Kbps
Movie name : Треугольник / Triangle (2009) HDRip-AVC | [All.Films][RG][torrentfilm.net]
Encoded date : UTC 2015-03-15 15:23:45
Writing application : mkvmerge v7.5.0 ('Glass Culture') 32bit built on Jan 10 2015 09:41:31
Writing library : libebml v1.3.1 + libmatroska v1.4.2
_STATISTICS_WRITING_APP : mkvmerge v7.5.0 ('Glass Culture') 32bit built on Jan 10 2015 09:41:31
_STATISTICS_WRITING_DATE_UT : 2015-03-15 15:23:45
_STATISTICS_TAGS : BPS DURATION NUMBER_OF_FRAMES NUMBER_OF_BYTES
DURATION : 01:38:51.792000000
NUMBER_OF_FRAMES : 142363
NUMBER_OF_BYTES : 2117084499
Video
ID : 1
Format : AVC
Format/Info : Advanced Video Codec
Format profile : High@L4.1
Format settings, CABAC : Yes
Format settings, ReFrames : 12 frames
Codec ID : V_MPEG4/ISO/AVC
Duration : 1h 38mn
Bit rate : 2 856 Kbps
Width : 1 112 pixels
Height : 470 pixels
Display aspect ratio : 2.35:1
Frame rate mode : Constant
Frame rate : 24.000 fps
Color space : YUV
Chroma subsampling : 4:2:0
Bit depth : 8 bits
Scan type : Progressive
Bits/(Pixel*Frame) : 0.228
Stream size : 1.92 GiB (66%)
Writing library : x264 core 142 r2389kMod 956c8d8
Encoding settings : cabac=1 / ref=12 / deblock=1:-2:-1 / analyse=0x3:0x133 / me=umh / subme=11 / psy=1 / fade_compensate=0.00 / psy_rd=0.95:0.00 / mixed_ref=1 / me_range=42 / chroma_me=1 / trellis=2 / 8x8dct=1 / cqm=0 / deadzone=21,11 / fast_pskip=0 / chroma_qp_offset=-2 / threads=6 / lookahead_threads=1 / sliced_threads=0 / nr=0 / decimate=0 / interlaced=0 / bluray_compat=0 / constrained_intra=0 / fgo=0 / bframes=12 / b_pyramid=2 / b_adapt=2 / b_bias=0 / direct=3 / weightb=1 / open_gop=0 / weightp=2 / keyint=250 / keyint_min=24 / scenecut=40 / intra_refresh=0 / rc_lookahead=60 / rc=2pass / mbtree=0 / bitrate=2856 / ratetol=1.0 / qcomp=0.60 / qpmin=0 / qpmax=69 / qpstep=4 / cplxblur=20.0 / qblur=0.5 / vbv_maxrate=50000 / vbv_bufsize=62500 / nal_hrd=none / filler=0 / ip_ratio=1.40 / pb_ratio=1.30 / aq=2:1.10 / zones=136000,142363,q=30
Default : Yes
Forced : No
Audio #1
ID : 2
Format : AC-3
Format/Info : Audio Coding 3
Mode extension : CM (complete main)
Format settings, Endianness : Big
Codec ID : A_AC3
Duration : 1h 38mn
Bit rate mode : Constant
Bit rate : 448 Kbps
Channel(s) : 6 channels
Channel positions : Front: L C R, Side: L R, LFE
Sampling rate : 48.0 KHz
Bit depth : 16 bits
Compression mode : Lossy
Stream size : 317 MiB (11%)
Title : DVO (R5)
Language : Russian
Default : No
Forced : No
Audio #2
ID : 3
Format : AC-3
Format/Info : Audio Coding 3
Mode extension : CM (complete main)
Format settings, Endianness : Big
Codec ID : A_AC3
Duration : 1h 38mn
Bit rate mode : Constant
Bit rate : 448 Kbps
Channel(s) : 6 channels
Channel positions : Front: L C R, Side: L R, LFE
Sampling rate : 48.0 KHz
Bit depth : 16 bits
Compression mode : Lossy
Stream size : 317 MiB (11%)
Title : MVO (ТВ-3)
Language : Russian
Default : No
Forced : No
Audio #3
ID : 4
Format : AC-3
Format/Info : Audio Coding 3
Mode extension : CM (complete main)
Format settings, Endianness : Big
Codec ID : A_AC3
Duration : 1h 38mn
Bit rate mode : Constant
Bit rate : 448 Kbps
Channel(s) : 6 channels
Channel positions : Front: L C R, Side: L R, LFE
Sampling rate : 48.0 KHz
Bit depth : 16 bits
Compression mode : Lossy
Stream size : 317 MiB (11%)
Title : AVO (Ю.Немахов)
Language : Russian
Default : No
Forced : No
Text #1
ID : 5
Format : UTF-8
Codec ID : S_TEXT/UTF8
Codec ID/Info : UTF-8 Plain Text
Language : Russian
Default : No
Forced : No
Text #2
ID : 6
Format : UTF-8
Codec ID : S_TEXT/UTF8
Codec ID/Info : UTF-8 Plain Text
Language : English
Default : No
Forced : No
Menu
00:00:00.000 : en:Chapter 1
00:08:41.457 : en:Chapter 2
00:19:36.040 : en:Chapter 3
00:27:10.500 : en:Chapter 4
00:33:28.208 : en:Chapter 5
00:38:16.791 : en:Chapter 6
00:43:46.375 : en:Chapter 7
00:50:34.458 : en:Chapter 8
00:58:57.666 : en:Chapter 9
01:01:51.083 : en:Chapter 10
01:09:19.375 : en:Chapter 11
01:19:43.666 : en:Chapter 12
01:26:37.791 : en:Chapter 13
01:29:16.707 : en:Chapter 14
01:31:11.582 : en:Chapter 15
01:34:19.375 : en:Chapter 16
-
General
Complete name : \Treugolnik_(2009).HDRip-AVC\Treugolnik_(2009).HDRip-AVC.DVO.MVO.Eng.Sub_[All.Films][RG]_Eng.ac3
Format : AC-3
Format/Info : Audio Coding 3
File size : 317 MiB
Duration : 1h 38mn
Overall bit rate mode : Constant
Overall bit rate : 448 Kbps
Audio
Format : AC-3
Format/Info : Audio Coding 3
Mode extension : CM (complete main)
Format settings, Endianness : Big
Duration : 1h 38mn
Bit rate mode : Constant
Bit rate : 448 Kbps
Channel(s) : 6 channels
Channel positions : Front: L C R, Side: L R, LFE
Sampling rate : 48.0 KHz
Bit depth : 16 bits
Compression mode : Lossy
Stream size : 317 MiB (100%)FAQ по просмотру MKV/h.264/AAC
[Профиль] [ЛС]

Создавать темы 06-Авг-2015 22:40 (спустя 4 месяца 15 дней)

Топик был перенесен из форума Фильмы до 2014 года в форум Фильмы до 2012 года
sergej644
 

Создавать темы 12-Июн-2016 08:49 (спустя 1 год 2 месяца)

Топик был перенесен из форума Фильмы 2011 года в форум Фильмы 2009 года
Russian Mafia
 
Кто просматривает тему:

Форум Тема Автор Размер
National Geographic NG: Осушить Бермудский треугольник / Drain the Bermuda Triangle (Jobim Sampson) [2014 г., Документальный, научно-познавательный, HDTVRip 720p] skorpionN 1.53 GB
Разная литература Виктор Конев | Бермудский треугольник и другие загадки морей и океанов (2014) [FB2, RTF] достали все 23 MB
R.G.TorrentFilm Video Осушить океан: Бермудский треугольник / Drain the Bermuda Triangle (Криспин Сэдлер / Crispin Sadler) [2014 г., Документальный, реконструкция, HDTVRip] VO (Сергей Куприянов) Один 777 532 MB
Фильмы 2009 года Треугольник / Triangle (Кристофер Смит / Christopher Smith) [2009 г., Великобритания, Австралия, триллер, драма, детектив, HDRip-AVC] DVO TorrentFilm 748 MB
Фильмы 2009 года Треугольник / Triangle (Кристофер Смит / Christopher Smith) [2009 г., Великобритания, Австралия, триллер, драма, детектив, HDRip-AVC] DVO + Original (Eng) + Sub (Rus, Eng) TorrentFilm 1.46 GB
Фильмы 2009 года Треугольник / Triangle (Кристофер Смит / Christopher Smith) [2009, Великобритания, Австралия, триллер, драма, детектив, SATRip] DVO (Кинолюкс) TorrentFilm 1.45 GB
Зарубежные сериалы Треугольник / Triangle / Teuraiaenggeul [01-26 из 26] (2014) HDTVRip | L2 Белочка 17.74 GB
Показать сообщения:    

Текущее время: Сегодня 06:05

Часовой пояс: GMT



Вы не можете начинать темы
Вы не можете отвечать на сообщения
Вы не можете редактировать свои сообщения
Вы не можете удалять свои сообщения
Вы не можете голосовать в опросах
Вы не можете прикреплять файлы к сообщениям
Вы не можете скачивать файлы