Треугольник / Triangle (Кристофер Смит / Christopher Smith) [2009, Великобритания, Австралия, триллер, драма, детектив, SATRip] DVO (Кинолюкс)

 
Автор Сообщение

TorrentFilm ®

Пол:

Стаж: 2 года

Сообщений: 7741



Награды: Нет

Торрент-статистика

Создавать темы 20-Дек-2014 02:00

[Цитировать]

Треугольник / Triangle
Страна: Великобритания, Австралия
Жанр: триллер, драма, детектив
Год выпуска: 2009
Продолжительность: 01:34:50
Перевод: Профессиональный (двухголосый закадровый) Кинолюкс/R5
Cубтитры: нет
Оригинальная аудиодорожка: нет
Режиссер: Кристофер Смит / Christopher Smith
В ролях: Мелисса Джордж, Джошуа МакИвор, Джек Тейлор, Майкл Дорман, Генри Никсон, Рейчал Карпани, Эмма Ланг, Лайам Хемсворт, Bryan Probets
Описание: Грег приглашает свою подругу Джесс, молодую мать-одиночку, провести день на яхте в кругу своих друзей. Начавшийся сильный шторм переворачивает судно, и оставшиеся в живых вынуждены дожидаться помощи, цепляясь за перевернутый корпус яхты. Спасение приходит в виде огромного океанического лайнера. Судно оказывается пустым, часы на борту остановились. Но они не одни на этом огромном корабле - за ними кто-то неустанно следит...
Доп. информация: SATRip имеет иное наполнение кадра чем BD http://screenshotcomparison.com/comparison/100465
Сэмпл: http://multi-up.com/1013695
Качество видео: SATRip
Формат видео: AVI
Видео: MPEG4, XviD, 720x400 (16/9), 25.000 fps, 1 734 Kbps (0.241 bit/pixel)
Аудио: AC-3, 48.0 KHz, 6 ch, 448 Kbps, CBR

MediaInfo

Общее
Полное имя : K:\Треугольник.avi
Формат : AVI
Формат/Информация : Audio Video Interleave
Размер файла : 1,45 Гбайт
Продолжительность : 1 ч. 34 м.
Общий поток : 2192 Кбит/сек
Название фильма : Треугольник / Triangle (2009)
Программа кодирования : VirtualDubMod 1.5.10.2 (build 2540/release)
Библиотека кодирования : VirtualDubMod build 2540/release
Правообладатель : miha2154
Видео
Идентификатор : 0
Формат : MPEG-4 Visual
Профиль формата : Advanced Simple@L5
Параметр BVOP формата : 1
Параметр QPel формата : Нет
Параметр GMC формата : Без точки перехода
Параметр матрицы формата : Выборочная
Идентификатор кодека : XVID
Идентификатор кодека/Подсказка : XviD
Продолжительность : 1 ч. 34 м.
Битрейт : 1734 Кбит/сек
Ширина : 720 пикселей
Высота : 400 пикселей
Соотношение сторон : 16:9
Частота кадров : 25,000 кадров/сек
Цветовое пространство : YUV
Субдискретизация насыщенности : 4:2:0
Битовая глубина : 8 бит
Тип развёртки : Прогрессивная
Метод сжатия : С потерями
Бит/(Пиксели*Кадры) : 0.241
Размер потока : 1,15 Гбайт (79%)
Библиотека кодирования : XviD 65
Аудио
Идентификатор : 1
Формат : AC-3
Формат/Информация : Audio Coding 3
Расширение режима : CM (complete main)
Параметр Endianness формата : Big
Идентификатор кодека : 2000
Продолжительность : 1 ч. 34 м.
Вид битрейта : Постоянный
Битрейт : 448 Кбит/сек
Каналы : 6 каналов
Расположение каналов : Front: L C R, Side: L R, LFE
Частота : 48,0 КГц
Битовая глубина : 16 бит
Метод сжатия : С потерями
Размер потока : 304 Мбайт (20%)
Выравнивание : Разделение по промежуткам
Продолжительность промежутка : 40 мс. (1,00 видеокадр)
Время предзагрузки промежутка : 500 мс.
Заголовок : Профессиональный (двухголосый, закадровый) Кинолюкс

Скриншоты

[Профиль] [ЛС]

Создавать темы 06-Авг-2015 22:54 (спустя 7 месяцев 17 дней)

Топик был перенесен из форума Фильмы до 2014 года в форум Фильмы до 2012 года
sergej644
 

Создавать темы 12-Июн-2016 08:48 (спустя 1 год 5 месяцев)

Топик был перенесен из форума Фильмы 2011 года в форум Фильмы 2009 года
Russian Mafia
 
Кто просматривает тему:

Форум Тема Автор Размер
National Geographic NG: Осушить Бермудский треугольник / Drain the Bermuda Triangle (Jobim Sampson) [2014 г., Документальный, научно-познавательный, HDTVRip 720p] skorpionN 1.53 GB
Разная литература Виктор Конев | Бермудский треугольник и другие загадки морей и океанов (2014) [FB2, RTF] достали все 23 MB
R.G.TorrentFilm Video Осушить океан: Бермудский треугольник / Drain the Bermuda Triangle (Криспин Сэдлер / Crispin Sadler) [2014 г., Документальный, реконструкция, HDTVRip] VO (Сергей Куприянов) Один 777 532 MB
Фильмы 2009 года Треугольник / Triangle (Кристофер Смит / Christopher Smith) [2009 г., Великобритания, Австралия, триллер, драма, детектив, HDRip-AVC] DVO TorrentFilm 748 MB
Фильмы 2009 года Треугольник / Triangle (Кристофер Смит / Christopher Smith) [2009 г., Великобритания, Австралия, триллер, драма, детектив, HDRip-AVC] DVO + MVO + AVO (Немахов) + Original (Eng) + Sub (Rus, Eng) TorrentFilm 3.21 GB
Фильмы 2009 года Треугольник / Triangle (Кристофер Смит / Christopher Smith) [2009 г., Великобритания, Австралия, триллер, драма, детектив, HDRip-AVC] DVO + Original (Eng) + Sub (Rus, Eng) TorrentFilm 1.46 GB
Зарубежные сериалы Треугольник / Triangle / Teuraiaenggeul [01-26 из 26] (2014) HDTVRip | L2 Белочка 17.74 GB
Показать сообщения:    

Текущее время: Сегодня 10:33

Часовой пояс: GMT



Вы не можете начинать темы
Вы не можете отвечать на сообщения
Вы не можете редактировать свои сообщения
Вы не можете удалять свои сообщения
Вы не можете голосовать в опросах
Вы не можете прикреплять файлы к сообщениям
Вы не можете скачивать файлы