Третья попытка (Игорь Мужжухин) [2015, Россия, мелодрама, HDTV 1080i]

 
Автор Сообщение

TorrentFilm ®

Пол:

Стаж: 2 года

Сообщений: 7741



Награды: Нет

Торрент-статистика

Создавать темы 17-Мар-2016 00:08

[Цитировать]

Третья попытка- -Страна: Россия
Жанр: мелодрама
Год выпуска: 2015
Производство: «Кинокомпания Русское»
Продолжительность: 01:30:50
Оригинальная аудиодорожка: русский
Cубтитры: нет-Режиссер: Игорь Мужжухин-В ролях:
Екатерина Рябова, Александр Асташёнок, Александр Пашков, Анжелика Кошевая,
Пётр Баранчеев, Сергей Ерошенков, Андрей Рогожин, Татьяна Храмова-Описание:
Настя и Олег пять лет вместе. Настя — медсестра, Олег — музыкант в оркестре, постоянно пропадающий на репетициях.
Их семейное счастье во многом держится на Насте — нежной, заботливой жене, готовой во всём поддерживать своего любимого.
Но однажды, придя домой раньше времени, Настя застаёт мужа с любовницей.
Поддавшись раскаянию Олега, Настя прощает его, но счастье уже не удаётся сохранить, и семья рушится…-Возраст: 12+-Качество: HDTV (1080i)
Формат: TS
Видео кодек: AVC
Аудио кодек: MPEG Audio

Видео: AVC, 1920 х 1080 (16:9), 25,000 кадр/сек, 7 867 Кбит/сек, 0.152 bit/pixel
Аудио: MPEG Audio 2, 48000 Hz, 192 Kbps, 2 канала
-

MediaInfo

General
ID : 1 (0x1)
Complete name : D:\Раздачи\Третья попытка HDTV (1080i)\Третья попытка HDTV (1080i).ts
Format : MPEG-TS
File size : 5.38 GiB
Duration : 1h 30mn
Overall bit rate mode : Variable
Overall bit rate : 8 480 Kbps
Video
ID : 2911 (0xB5F)
Menu ID : 1057 (0x421)
Format : AVC
Format/Info : Advanced Video Codec
Format profile : High@L4
Format settings, CABAC : Yes
Format settings, ReFrames : 4 frames
Codec ID : 27
Duration : 1h 30mn
Bit rate : 7 867 Kbps
Width : 1 920 pixels
Height : 1 080 pixels
Display aspect ratio : 16:9
Frame rate : 25.000 fps
Color space : YUV
Chroma subsampling : 4:2:0
Bit depth : 8 bits
Scan type : MBAFF
Scan type, store method : Interleaved fields
Scan order : Top Field First
Bits/(Pixel*Frame) : 0.152
Stream size : 4.99 GiB (93%)
Audio
ID : 2912 (0xB60)
Menu ID : 1057 (0x421)
Format : MPEG Audio
Format version : Version 1
Format profile : Layer 2
Codec ID : 3
Duration : 1h 30mn
Bit rate mode : Constant
Bit rate : 192 Kbps
Channel(s) : 2 channels
Sampling rate : 48.0 KHz
Compression mode : Lossy
Stream size : 125 MiB (2%)
Language : Russian

Скриншоты


-Раздаю до первых 5-ти скачавших, на раздачи не возвращаюсь...-
[Профиль] [ЛС]
Кто просматривает тему:

Форум Тема Автор Размер
Rock (Рок) Нервы - Третье Дыхание - 2015, MP3, 320 kbps достали все 109 MB
Документальные HD NG. Суперсооружения Третьего рейха (2 сезон, 6 серия из 6) / Nazi Megastructures (Megastructures: Nazi Mega Weapons) - 2 [2014, Документальный, война, история, HDTVRip 720p] TorrentFilm 1.31 GB
National Geographic NG: Суперсооружения Третьего рейха / Nazi Megastructures (Megastructures: Nazi Mega Weapons) [сезон 2 серии 1-6 из 6] (Гари Джонстон, Кристофер Спенсер, Люк МакЛагхлин) [2014 г., Документал... skorpionN 3.69 GB
PBS PBS: Суперсооружения Третьего рейха (2 сезон, 1 серия из 6) / Nazi Megastructures (Megastructures: Nazi Mega Weapons) - 2 [2014, Документальный, война, история, HDTVRip 720p] TorrentFilm 1.73 GB
Action Wolfschanze 2 / Wolfschanze 2. Падение Третьего рейха [L] [RUS/RUS] (2010) TorrentFilm 2.82 GB
Action Wolfschanze 2: Падение Третьего рейха (2010) (RUS) [RePack] Russian Mafia 1.77 GB
Фантастика и фэнтези Алексей Гравицкий, Михаил Костин – Живое и мертвое 03. Третья сила (2015) MP3 Swager 655 MB
Фантастика, фэнтези Алексей Калугин | Кластер Войвод. Третье правило крови (2016) [FB2] Garik014 1 MB
Показать сообщения:    

Текущее время: Сегодня 22:35

Часовой пояс: GMT



Вы не можете начинать темы
Вы не можете отвечать на сообщения
Вы не можете редактировать свои сообщения
Вы не можете удалять свои сообщения
Вы не можете голосовать в опросах
Вы не можете прикреплять файлы к сообщениям
Вы не можете скачивать файлы