Третья мировая [01-04 из 04] (2013) DVDRip от New-Team | лицензия

 
Автор Сообщение

Белочка ®

Пол:

Стаж: 5 лет 8 месяцев

Сообщений: 2081



Награды: 1 (Подробнее)

Girls (Количество: 1)
Торрент-статистика

Создавать темы 18-Дек-2014 14:06

[Цитировать]

-Страна: Россия / ЗАО "Дирекция кино"
Жанр: драма
Год выпуска: 2013
Продолжительность: ~ 00:50:00 / серия
Перевод: Не требуется
Cубтитры: нет
Оригинальная аудиодорожка: русский
Режиссер: Александр Котт
В ролях: Александр Коршунов, Светлана Смирнова-Марцинкевич, Николай Иванов (III), Мария Луговая, Михаил Гаврилов, Людмила Полякова, Никита Высоцкий, Ирина Основина, Марина Поляк, Анна Галинова, Татьяна Шатилова, Анна Гуляренко, Анна Цуканова, Максим Костромыкин, Леонид Громов, Тамара Акулова, Владимир Меньшов, Валентина Теличкина, Лев Прыгунов, Ольга Науменко, Сергей Романович
Описание: О трагической истории любви на фоне Карибского кризиса. По сюжету фильма, после обострения отношений двух сверхдержав в разных регионах Советского Союза организованы военные сборы для резервистов. В тихой деревушке, расположенной где-то в средней полосе России, ничего не знают о высоких целях политического руководства СССР и США. Но когда мужчины призывного возраста начинают получать повестки из военкомата, сельчане понимают: началась новая война…
-Качество: DVDRip / DVD9 R5 - лицензионный диск от компании "CD Land"
Формат: AVI
Видео: 704x400 (1.76:1), 25.000 fps, XviD ~ 1800 kbps avg, 0.256 bit/pixel
Аудио: 48 kHz, Dolby AC3, 2 ch, 192 kbps, русский

MediaInfo

General
Format : AVI
Format/Info : Audio Video Interleave
File size : 756 MiB
Duration : 52mn 47s
Overall bit rate : 2 001 Kbps
Writing application : VirtualDubMod 1.5.10.3 | www.virtualdub-fr.org || (build 2550/release)
Writing library : VirtualDubMod build 2550/release
Video
ID : 0
Format : MPEG-4 Visual
Format profile : Advanced Simple@L5
Format settings, BVOP : 1
Format settings, QPel : No
Format settings, GMC : No warppoints
Format settings, Matrix : Custom
Codec ID : XVID
Codec ID/Hint : XviD
Duration : 52mn 47s
Bit rate : 1 799 Kbps
Width : 704 pixels
Height : 400 pixels
Display aspect ratio : 16:9
Frame rate : 25.000 fps
Color space : YUV
Chroma subsampling : 4:2:0
Bit depth : 8 bits
Scan type : Progressive
Compression mode : Lossy
Bits/(Pixel*Frame) : 0.256
Stream size : 680 MiB (90%)
Writing library : XviD 73
Audio
ID : 1
Format : AC-3
Format/Info : Audio Coding 3
Mode extension : CM (complete main)
Format settings, Endianness : Big
Codec ID : 2000
Duration : 52mn 46s
Bit rate mode : Constant
Bit rate : 192 Kbps
Channel(s) : 2 channels
Channel positions : Front: L R
Sampling rate : 48.0 KHz
Bit depth : 16 bits
Compression mode : Lossy
Stream size : 72.5 MiB (10%)
Alignment : Split accross interleaves
Interleave, duration : 40 ms (1.00 video frame)
Interleave, preload duration : 500 ms

Скриншоты:

[/hide]
[Профиль] [ЛС]
Кто просматривает тему:

Форум Тема Автор Размер
ТВ - Шоу Что? Где? Когда? Зимняя серия. Игра третья [Эфир 11.12] (2016) HDTVRip достали все 922 MB
Показать сообщения:    

Текущее время: Сегодня 09:06

Часовой пояс: GMT



Вы не можете начинать темы
Вы не можете отвечать на сообщения
Вы не можете редактировать свои сообщения
Вы не можете удалять свои сообщения
Вы не можете голосовать в опросах
Вы не можете прикреплять файлы к сообщениям
Вы не можете скачивать файлы