Третья звезда / Third Star (Хэтти Далтон / Hattie Dalton) [2010, Великобритания, драма, HDRip] MVO

 
Автор Сообщение

painkiller ®

Стаж: 2 года 3 месяца

Сообщений: 582



Награды: Нет

Торрент-статистика

Создавать темы 17-Авг-2014 01:01

[Цитировать]

Третья звезда / Third Star
Страна: Великобритания
Жанр: драма
Год выпуска: 2010
Продолжительность: 01:32:08
Перевод: Профессиональный (многоголосый закадровый) | Лицензия
Cубтитры: нет
Оригинальная аудиодорожка: нет
Режиссер: Хэтти Далтон / Hattie Dalton
В ролях: Бенедикт Камбербэтч, Том Бёрк, Джей Джей Филд, Хью Бонневилль, Адам Робертсон, Руперт Фрейзер, Хелен Гриффин, Карл Джонсон, Ниа Робертс, Эрос Влахос
Описание: Фильм расскажет о трех друзьях около тридцати лет, отправляющихся в путешествие со своим умирающим от рака другом. Ему 29 и уже никогда не будет 30. Это история настоящей дружбы, сдобренная юмором несмотря на трагичность ситуации.

Сэмпл: http://sendfile.su/975593
Качество видео: HDRip
Формат видео: AVI
Видео: XviD 73, 688x368 (1.85:1), 24.000 fps, 1787 Kbps
Аудио: AC-3, 48.0 kHz, 448 Kbps, 5.1 ch, CBR
Релиз от: Scarabey

MediaInfo

General
Complete name                            : Third Star.2010.P.HDRip.avi
Format                                   : AVI
Format/Info                              : Audio Video Interleave
File size                                : 1.44 GiB
Duration                                 : 1h 32mn
Overall bit rate                         : 2 244 Kbps
Writing application                      : VirtualDubMod 1.5.10.3 | www.virtualdub-fr.org || (build 2550/release)
Writing library                          : VirtualDubMod build 2550/release
Video
ID                                       : 0
Format                                   : MPEG-4 Visual
Format profile                           : Advanced Simple@L5
Format settings, BVOP                    : 1
Format settings, QPel                    : No
Format settings, GMC                     : No warppoints
Format settings, Matrix                  : Custom
Codec ID                                 : XVID
Codec ID/Hint                            : XviD
Duration                                 : 1h 32mn
Bit rate                                 : 1 787 Kbps
Width                                    : 688 pixels
Height                                   : 368 pixels
Display aspect ratio                     : 1.85:1
Frame rate                               : 24.000 fps
Color space                              : YUV
Chroma subsampling                       : 4:2:0
Bit depth                                : 8 bits
Scan type                                : Progressive
Compression mode                         : Lossy
Bits/(Pixel*Frame)                       : 0.294
Stream size                              : 1.15 GiB (80%)
Writing library                          : XviD 73
Audio
ID                                       : 1
Format                                   : AC-3
Format/Info                              : Audio Coding 3
Mode extension                           : CM (complete main)
Format settings, Endianness              : Big
Codec ID                                 : 2000
Duration                                 : 1h 32mn
Bit rate mode                            : Constant
Bit rate                                 : 448 Kbps
Channel(s)                               : 6 channels
Channel positions                        : Front: L C R, Side: L R, LFE
Sampling rate                            : 48.0 KHz
Bit depth                                : 16 bits
Compression mode                         : Lossy
Stream size                              : 295 MiB (20%)
Alignment                                : Split accross interleaves
Interleave, duration                     : 42 ms (1.00 video frame)
Interleave, preload duration             : 500 ms

Скриншот c названием фильма

Скриншоты

[Профиль] [ЛС]

Создавать темы 06-Авг-2015 23:09 (спустя 11 месяцев 20 дней)

Топик был перенесен из форума Фильмы до 2014 года в форум Фильмы до 2012 года
sergej644
 

Создавать темы 12-Июн-2016 07:54 (спустя 1 год 9 месяцев)

Топик был перенесен из форума Фильмы 2011 года в форум Фильмы 2010 года
Russian Mafia
 
Кто просматривает тему:

Форум Тема Автор Размер
Rock (Рок) Нервы - Третье Дыхание - 2015, MP3, 320 kbps достали все 109 MB
Документальные HD NG. Суперсооружения Третьего рейха (2 сезон, 6 серия из 6) / Nazi Megastructures (Megastructures: Nazi Mega Weapons) - 2 [2014, Документальный, война, история, HDTVRip 720p] TorrentFilm 1.31 GB
National Geographic NG: Суперсооружения Третьего рейха / Nazi Megastructures (Megastructures: Nazi Mega Weapons) [сезон 2 серии 1-6 из 6] (Гари Джонстон, Кристофер Спенсер, Люк МакЛагхлин) [2014 г., Документал... skorpionN 3.69 GB
PBS PBS: Суперсооружения Третьего рейха (2 сезон, 1 серия из 6) / Nazi Megastructures (Megastructures: Nazi Mega Weapons) - 2 [2014, Документальный, война, история, HDTVRip 720p] TorrentFilm 1.73 GB
Action Wolfschanze 2 / Wolfschanze 2. Падение Третьего рейха [L] [RUS/RUS] (2010) TorrentFilm 2.82 GB
Action Wolfschanze 2: Падение Третьего рейха (2010) (RUS) [RePack] Russian Mafia 1.77 GB
Фантастика и фэнтези Алексей Гравицкий, Михаил Костин – Живое и мертвое 03. Третья сила (2015) MP3 Swager 655 MB
Фантастика, фэнтези Алексей Калугин | Кластер Войвод. Третье правило крови (2016) [FB2] Garik014 1 MB
Показать сообщения:    

Текущее время: Сегодня 14:36

Часовой пояс: GMT



Вы не можете начинать темы
Вы не можете отвечать на сообщения
Вы не можете редактировать свои сообщения
Вы не можете удалять свои сообщения
Вы не можете голосовать в опросах
Вы не можете прикреплять файлы к сообщениям
Вы не можете скачивать файлы