Третий удар (1948) DVDRip

 
Автор Сообщение

BOSS ®

Пол:

Стаж: 2 года 1 месяц

Сообщений: 3719

Откуда: ODESSA



Награды: 20 (Подробнее)

За внесенный вклад в развитие сайта (Количество: 1) Top Seeder 3 (Количество: 1) Mega Seeder 5 (Количество: 1)
Торрент-статистика

Создавать темы 28-Авг-2015 16:44

[Цитировать]

Страна: СССР
Производство: Киевская киностудия
Жанр: военный
Год выпуска: 1948
Продолжительность: 01:46:12
Перевод: Не требуется
Cубтитры: нет
Оригинальная аудиодорожка: русский
Режиссер: Игорь Савченко
В ролях:
Алексей Дикий, Николай Боголюбов, Юрий Шумский, Виктор Станицын, Владимир Головин, Михаил Романов, Иван Переверзев, Сергей Блинников, Марк Бернес, Николай Пишванов...
Описание:
1944 год. Начинается операция по освобождению Крыма под командованием генерала Толбухина. Гитлеровцы не в силах сдержать наступление наших войск и стратегический план «Третьего удара» выполнен: на вершине Сапун-горы водружен красный стяг, освобожден Севастополь, а враги сброшены в Черное море...- -Источник: DVD5 R5
Качество видео: DVDRip
Формат видео: AVI
Видео: 688x512 (4:3), 25 fps, XviD ~ 1765 kbps avg, 0.200 bit/pixel
Аудио: 48 kHz, Dolby Digital AC3 2.0, 192 kbps

MediaInfo

Общее
Полное имя : Tretiy.udar.1948.DVDRip_[New-team]_by_AVP_Studio.avi
Формат : AVI
Формат/Информация : Audio Video Interleave
Размер файла : 1,46 Гбайт
Продолжительность : 1 ч. 46 м.
Общий поток : 1967 Кбит/сек
Программа кодирования : VirtualDubMod 1.5.10.3 | www.virtualdub-fr.org || (build 2550/release)
Библиотека кодирования : VirtualDubMod build 2550/release
Видео
Идентификатор : 0
Формат : MPEG-4 Visual
Профиль формата : Advanced Simple@L5
Параметр BVOP формата : 1
Параметр QPel формата : Нет
Параметр GMC формата : Без точки перехода
Параметр матрицы формата : Выборочная
Идентификатор кодека : XVID
Идентификатор кодека/Подсказка : XviD
Продолжительность : 1 ч. 46 м.
Битрейт : 1765 Кбит/сек
Ширина : 688 пикселей
Высота : 512 пикселей
Соотношение сторон : 4:3
Частота кадров : 25,000 кадров/сек
Цветовое пространство : YUV
Субдискретизация насыщенности : 4:2:0
Битовая глубина : 8 бит
Тип развёртки : Прогрессивная
Метод сжатия : С потерями
Бит/(Пиксели*Кадры) : 0.200
Размер потока : 1,31 Гбайт (90%)
Библиотека кодирования : XviD 73
Аудио
Идентификатор : 1
Формат : AC-3
Формат/Информация : Audio Coding 3
Расширение режима : CM (complete main)
Параметр Endianness формата : Big
Идентификатор кодека : 2000
Продолжительность : 1 ч. 46 м.
Вид битрейта : Постоянный
Битрейт : 192 Кбит/сек
Каналы : 2 канала
Расположение каналов : Front: L R
Частота : 48,0 КГц
Метод сжатия : С потерями
Размер потока : 146 Мбайт (10%)
Выравнивание : Разделение по промежуткам
Продолжительность промежутка : 40 мс. (1,00 видеокадр)
Время предзагрузки промежутка : 500 мс

Скриншоты

[Профиль] [ЛС]
Кто просматривает тему:

Форум Тема Автор Размер
Rap, Hip-Hop, R'n'B AK-47 - Третий (2015) MP3 BOSS 168 MB
Viasat History Viasat History: Ватикан и Третий Рейх / The Vatican and the Third Reich (Rufo Pajares) [2014 г., Документальный, история, SATRip] skorpionN 750 MB
XXXI Летние Олимпийские игры. Рио-де-Жанейро 2016 (Бразилия) XXXI Летние Олимпийские Игры. Рио-де-Жанейро (Бразилия). Легкая атлетика. Третий день. Вечер [14.08] (2016) HDTV 1080i BOSS 10.59 GB
XXXI Летние Олимпийские игры. Рио-де-Жанейро 2016 (Бразилия) XXXI Летние Олимпийские Игры. Рио-де-Жанейро (Бразилия). Легкая атлетика. Третий день. Утро [14.08] (2016) HDTV 1080i BOSS 12 GB
Разная литература А. Мёллер ван ден Брук, - Миф о вечной империи и Третий рейх [2009, DjVu/PDF, RUS] Garik014 23 MB
Фильмы 2010 года Как достойно встретить смерть / A Beginner\'s Guide to Endings (Джонатан Собол / Jonathan Sobol) [2010, США, Канада, комедийная драма, DVDRip] VO (Петр Титов) + Original Eng TorrentFilm 1.39 GB
Зарубежные сериалы Как я встретил вашу маму / How I Met Your Mother [S01-09] (2005-2014) HDTVRip, WEB-DLRip, DVDRip | Кураж-Бамбей Russian Mafia 39.21 GB
Зарубежные сериалы Как я встретил вашу маму / How I Met Your Mother [S02] (2006-2007) WEB-DL 720p | Кураж-Бамбей, Paramount Comedy, MTV Russian Mafia 17.49 GB
Показать сообщения:    

Текущее время: Сегодня 20:40

Часовой пояс: GMT



Вы не можете начинать темы
Вы не можете отвечать на сообщения
Вы не можете редактировать свои сообщения
Вы не можете удалять свои сообщения
Вы не можете голосовать в опросах
Вы не можете прикреплять файлы к сообщениям
Вы не можете скачивать файлы