Третий лишний 2 / Ted 2 (Сет МакФарлейн / Seth MacFarlane) [2015, США, Комедия, WEB-DLRip] Dub (iTunes)

 
Автор Сообщение

TorrentFilm ®

Пол:

Стаж: 2 года

Сообщений: 7741



Награды: Нет

Торрент-статистика

Создавать темы 21-Ноя-2015 00:09

[Цитировать]

Третий лишний 2 / Ted 2«Плюшевый беспредельщик возвращается» Страна: США
Жанр: Комедия
Год выпуска: 2015
Продолжительность: 01:52:43-Перевод: Профессиональный (дублированный) iTunes
Cубтитры: нет-Режиссер: Сет МакФарлейн / Seth MacFarlane-В ролях: Марк Уолберг, Сет МакФарлейн, Аманда Сайфред, Джованни Рибизи, Джон Слэттери, Морган Фриман, Джессика Барт, Сэм Дж. Джонс, Патрик Варбертон, Майкл Дорн-Описание: Плюшевый беспредельщик продолжает сводить с ума чопорную интеллигенцию. На этот раз говорящий медвежонок с большим эго и его длинноногая блондинка решили завести ребёнка. Там, где не постаралась природа, на помощь приходят звёздные доноры, городские сумасшедшие и верный друг Джонни. Он только что расстался с Лори и готов к новым авантюрам. Третий здесь совсем не лишний.- -Качество видео: WEB-DLRip
Формат видео: AVI
Видео: 720x304, 23.976 fps, XviD, ~1453 kbps, 0.28 bit/pixel
Аудио: 48 kHz, AC3 Dolby Digital, 6 ch, ~384 kbps

MediaInfo

General
Complete name : Ted.2.2015_WEB-DLRip.avi
Format : AVI
Format/Info : Audio Video Interleave
File size : 1.45 GiB
Duration : 1h 52mn
Overall bit rate : 1 847 Kbps
Writing application : VirtualDubMod 1.5.10.3 | www.virtualdub-fr.org || (build 2550/release)
Writing library : VirtualDubMod build 2550/release
Video #0
ID : 0
Format : MPEG-4 Visual
Format profile : Advanced Simple@L5
Format settings, BVOP : 1
Format settings, QPel : No
Format settings, GMC : No warppoints
Format settings, Matrix : Custom
Codec ID : XVID
Codec ID/Hint : XviD
Duration : 1h 52mn
Bit rate : 1 454 Kbps
Width : 720 pixels
Height : 304 pixels
Display aspect ratio : 2.35:1
Frame rate : 23.976 fps
Color space : YUV
Chroma subsampling : 4:2:0
Bit depth : 8 bits
Scan type : Progressive
Compression mode : Lossy
Bits/(Pixel*Frame) : 0.277
Stream size : 1.14 GiB (79%)
Writing library : XviD 73
Audio #1
ID : 1
Format : AC-3
Format/Info : Audio Coding 3
Mode extension : CM (complete main)
Format settings, Endianness : Big
Codec ID : 2000
Duration : 1h 52mn
Bit rate mode : Constant
Bit rate : 384 Kbps
Channel(s) : 6 channels
Channel positions : Front: L C R, Side: L R, LFE
Sampling rate : 48.0 KHz
Bit depth : 16 bits
Compression mode : Lossy
Stream size : 310 MiB (21%)
Alignment : Split accross interleaves
Interleave, duration : 42 ms (1.00 video frame)
Interleave, preload duration : 500 ms

Скриншот c названием фильма

Скриншоты

[Профиль] [ЛС]
Кто просматривает тему:

Форум Тема Автор Размер
Rap, Hip-Hop, R'n'B AK-47 - Третий (2015) MP3 BOSS 168 MB
Viasat History Viasat History: Ватикан и Третий Рейх / The Vatican and the Third Reich (Rufo Pajares) [2014 г., Документальный, история, SATRip] skorpionN 750 MB
XXXI Летние Олимпийские игры. Рио-де-Жанейро 2016 (Бразилия) XXXI Летние Олимпийские Игры. Рио-де-Жанейро (Бразилия). Легкая атлетика. Третий день. Вечер [14.08] (2016) HDTV 1080i BOSS 10.59 GB
XXXI Летние Олимпийские игры. Рио-де-Жанейро 2016 (Бразилия) XXXI Летние Олимпийские Игры. Рио-де-Жанейро (Бразилия). Легкая атлетика. Третий день. Утро [14.08] (2016) HDTV 1080i BOSS 12 GB
Разная литература А. Мёллер ван ден Брук, - Миф о вечной империи и Третий рейх [2009, DjVu/PDF, RUS] Garik014 23 MB
Фильмы 2010 года Как достойно встретить смерть / A Beginner\'s Guide to Endings (Джонатан Собол / Jonathan Sobol) [2010, США, Канада, комедийная драма, DVDRip] VO (Петр Титов) + Original Eng TorrentFilm 1.39 GB
Зарубежные сериалы Как я встретил вашу маму / How I Met Your Mother [S01-09] (2005-2014) HDTVRip, WEB-DLRip, DVDRip | Кураж-Бамбей Russian Mafia 39.21 GB
Зарубежные сериалы Как я встретил вашу маму / How I Met Your Mother [S02] (2006-2007) WEB-DL 720p | Кураж-Бамбей, Paramount Comedy, MTV Russian Mafia 17.49 GB
Показать сообщения:    

Текущее время: Сегодня 02:43

Часовой пояс: GMT



Вы не можете начинать темы
Вы не можете отвечать на сообщения
Вы не можете редактировать свои сообщения
Вы не можете удалять свои сообщения
Вы не можете голосовать в опросах
Вы не можете прикреплять файлы к сообщениям
Вы не можете скачивать файлы