Тренер / McFarland, USA (Ники Каро / Niki Caro) [2015, США, драма, спорт, BDRip-AVC] MVO + Subs (Rus, Eng) + Original Eng

 
Автор Сообщение

TorrentFilm ®

Пол:

Стаж: 2 года

Сообщений: 7741



Награды: Нет

Торрент-статистика

Создавать темы 21-Июн-2015 00:09

[Цитировать]

Тренер / McFarland, USA
Страна: США
Жанр: драма, спорт
Год выпуска: 2015
Продолжительность: 02:08:56
Перевод: Профессиональный (многоголосый закадровый) Blu-ray EUR
Cубтитры: русские, английские
Оригинальная аудиодорожка: английский
Режиссер: Ники Каро / Niki Caro
В ролях: Кевин Костнер, Рамиро Родригес, Карлос Праттс, Джонни Ортиз, Рафаэль Мартинез, Гектор Дюран, Серджо Авелар, Майкл Агеро, Диана-Мария Рива, Омар Лейва
Описание: История, основанная на реальных событиях. В начале девяностых, в маленьком городке МакФарланд, профессиональный тренер создает команду по легкой атлетике из обычных сорванцов и мелких «хулиганов», и приводит эту команду до вершины спортивного Олимпа. Население МакФарланда — это 90 процентов латиноамериканцы, которые приехали в США под видом переселенцев и беженцев… Сэмпл: скачать
Качество видео: BDRip-AVC [Blu-ray EUR. Hdclub]
Формат видео: MKV
Видео: AVC, 1136 x 478 (2,40:1), 2349 kbps, 23,976 fps, 0.180 bpp
Аудио: AC3, 6ch, 48 kHz, 448 kbps, 16 bit
Аудио 2: AC3, 6ch, 48 kHz, 448 kbps, 16 bit
Формат субтитров: softsub (SRT)

MediaInfo

Уникальный идентификатор : 207484729223234754951720886725897193654 (0x9C181AF508826816901FE4006E2188B6)
Полное имя : F:\Films\Trener\Trener.mkv
Формат : Matroska
Версия формата : Version 4 / Version 2
Размер файла : 2,92 Гбайт
Продолжительность : 2 ч. 9 м.
Общий поток : 3244 Кбит/сек
Дата кодирования : UTC 2015-06-19 04:58:40
Программа кодирования : mkvmerge v7.7.0 ('Six Voices') 64bit built on Feb 28 2015 23:39:33
Библиотека кодирования : libebml v1.3.1 + libmatroska v1.4.2
_STATISTICS_WRITING_APP : mkvmerge v7.7.0 ('Six Voices') 64bit built on Feb 28 2015 23:39:33
_STATISTICS_WRITING_DATE_UTC : 2015-06-19 04:58:40
_STATISTICS_TAGS : BPS DURATION NUMBER_OF_FRAMES NUMBER_OF_BYTES
DURATION : 02:04:42.515000000
NUMBER_OF_FRAMES : 1970
NUMBER_OF_BYTES : 63706
Видео
Идентификатор : 1
Формат : AVC
Формат/Информация : Advanced Video Codec
Профиль формата : High@L4.1
Параметр CABAC формата : Да
Параметр ReFrames формата : 9 кадров
Идентификатор кодека : V_MPEG4/ISO/AVC
Продолжительность : 2 ч. 9 м.
Битрейт : 2349 Кбит/сек
Ширина : 1136 пикселей
Высота : 478 пикселей
Соотношение сторон : 2,40:1
Соотношение сторон в оригинале : 2,40:1
Режим частоты кадров : Постоянный
Частота кадров : 23,976 кадра/сек
Цветовое пространство : YUV
Субдискретизация насыщенности : 4:2:0
Битовая глубина : 8 бит
Тип развёртки : Прогрессивная
Бит/(Пиксели*Кадры) : 0.180
Размер потока : 2,06 Гбайт (70%)
Библиотека кодирования : x264 core 142 r2431 ac76440
Настройки программы : cabac=1 / ref=9 / deblock=1:-2:-1 / analyse=0x3:0x133 / me=umh / subme=9 / psy=1 / psy_rd=1.00:0.05 / mixed_ref=0 / me_range=38 / chroma_me=1 / trellis=2 / 8x8dct=1 / cqm=0 / deadzone=21,11 / fast_pskip=0 / chroma_qp_offset=-3 / threads=3 / lookahead_threads=1 / sliced_threads=0 / nr=0 / decimate=0 / interlaced=0 / bluray_compat=0 / constrained_intra=0 / bframes=12 / b_pyramid=2 / b_adapt=2 / b_bias=0 / direct=1 / weightb=1 / open_gop=0 / weightp=2 / keyint=240 / keyint_min=23 / scenecut=40 / intra_refresh=0 / rc_lookahead=60 / rc=2pass / mbtree=0 / bitrate=2349 / ratetol=1.0 / qcomp=0.70 / qpmin=10 / qpmax=69 / qpstep=4 / cplxblur=20.0 / qblur=0.5 / vbv_maxrate=50000 / vbv_bufsize=62500 / nal_hrd=none / filler=0 / ip_ratio=1.40 / pb_ratio=1.30 / aq=2:1.00
Default : Да
Forced : Нет
Аудио #1
Идентификатор : 2
Формат : AC-3
Формат/Информация : Audio Coding 3
Расширение режима : CM (complete main)
Параметр Endianness формата : Big
Идентификатор кодека : A_AC3
Продолжительность : 2 ч. 9 м.
Вид битрейта : Постоянный
Битрейт : 448 Кбит/сек
Каналы : 6 каналов
Расположение каналов : Front: L C R, Side: L R, LFE
Частота : 48,0 КГц
Битовая глубина : 16 бит
Метод сжатия : С потерями
Размер потока : 414 Мбайт (14%)
Заголовок : Русский, многоголосый закадровый
Язык : Russian
Default : Да
Forced : Нет
Аудио #2
Идентификатор : 3
Формат : AC-3
Формат/Информация : Audio Coding 3
Расширение режима : CM (complete main)
Параметр Endianness формата : Big
Идентификатор кодека : A_AC3
Продолжительность : 2 ч. 9 м.
Вид битрейта : Постоянный
Битрейт : 448 Кбит/сек
Каналы : 6 каналов
Расположение каналов : Front: L C R, Side: L R, LFE
Частота : 48,0 КГц
Битовая глубина : 16 бит
Метод сжатия : С потерями
Размер потока : 414 Мбайт (14%)
Заголовок : Английский
Язык : English
Default : Нет
Forced : Нет
Текст #1
Идентификатор : 4
Формат : UTF-8
Идентификатор кодека : S_TEXT/UTF8
Идентификатор кодека/Информация : UTF-8 Plain Text
Заголовок : Русские
Язык : Russian
Default : Нет
Forced : Нет
Текст #2
Идентификатор : 5
Формат : UTF-8
Идентификатор кодека : S_TEXT/UTF8
Идентификатор кодека/Информация : UTF-8 Plain Text
Заголовок : Английские
Язык : English
Default : Нет
Forced : Нет

Скриншот c названием фильма

Скриншоты

[Профиль] [ЛС]
Показать сообщения:    

Текущее время: Сегодня 00:36

Часовой пояс: GMT



Вы не можете начинать темы
Вы не можете отвечать на сообщения
Вы не можете редактировать свои сообщения
Вы не можете удалять свои сообщения
Вы не можете голосовать в опросах
Вы не можете прикреплять файлы к сообщениям
Вы не можете скачивать файлы