Трейсеры/ Tracers (2015) BDRip [720p]

 
Автор Сообщение

достали все ®

Пол:

Стаж: 1 год 8 месяцев

Сообщений: 6613



Награды: 12 (Подробнее)

За внесенный вклад в развитие сайта (Количество: 1) Mega Seeder 4 (Количество: 1) Top Releaser 4 (Количество: 1)
Торрент-статистика

Создавать темы 29-Апр-2015 03:24

[Цитировать]

- Трейсеры/ Tracers (2015) BDRip [720p]
- Производство: США / Freerunning, Cowtown Cinema Ventures
Жанр: боевик
Режиссер: Даниэль Бенмаур
Продюсер: Марти Бауэн, Вик Годфри, Д. Скотт Лампкин
Актеры: Тэйлор Лотнер, Мари Авгеропулос, Адам Рэйнер, Рафи Гаврон, Лучиано Акуна мл., Джош Ядон, Джонни М. Ву, Сэм Медина, Амирах Ванн, Кристиан Стил
Описание:
Кэм — обычный курьер, который столкнулся с большими проблемами. Он задолжал крупную сумму денег криминальной группировке, и бандиты требуют вернуть долг в течении нескольких дней. Однажды, развозя почту на своем велосипеде, Кэм врезается в симпатичную девушку Никки, которая увлекается паркуром. Она показывает парню новый мир и обучает его различным трюкам. Кэм очень быстро учится и понимает, что это и есть дело его жизни. Вскоре он узнает, что Никки и ее друзья занимаются не совсем законными делами, и решает присоединиться к ним, чтобы отдать долг бандитам. Впереди его ждет множество опасностей, но он готов идти до конца..

Дата мировой премьеры: 15 января 2015
Дата российской премьеры: 30 июля 2015, «West»
Продолжительность: 1:33:56
Качество видео: BDRip
Перевод: Двуголосый закадровый, любительский
Озвучка / Автор перевода: (Студия Пиратского Дубляжа)
Субтитры: Вшитые отключаемые
Язык субтитров: Английский (full, SDH)
Видеокодек: AVC/H.264
Битрейт видео: 7 162 Kbps
Размер кадра: 1 280x534
Аудио #1: Русский - AC3 / 5.1 / 48.0 KHz / 384 Kbps
Аудио #2: Английский - DTS / 5.1 / 48 kHz / 1509 kbps

Mi

General
Unique ID                   : 179365523715131337718127302049257401805 (0x86F08B167428F3BE8D1C8C9BB742ADCD)
Complete name               : C:\CREATE\264mod1\out\Tracers\Tracers.2015.720p.BluRay.RU_AC3.DTS.mkv
Format                      : Matroska
Format version              : Version 4 / Version 2
File size                   : 6.07 GiB
Duration                    : 1h 34mn
Overall bit rate            : 9 238 Kbps
Movie name                  : Tracers (2015)
Encoded date                : UTC 2015-04-28 18:57:18
Writing application         : mkvmerge v7.8.0 ('River Man') 32bit built on Mar 27 2015 16:18:02
Writing library             : libebml v1.3.1 + libmatroska v1.4.2
Attachements                : cover.jpg
_STATISTICS_WRITING_APP     : mkvmerge v7.8.0 ('River Man') 32bit built on Mar 27 2015 16:18:02
_STATISTICS_WRITING_DATE_UT : 2015-04-28 18:57:18
_STATISTICS_TAGS            : BPS DURATION NUMBER_OF_FRAMES NUMBER_OF_BYTES
DURATION                    : 01:33:56.423000000
NUMBER_OF_FRAMES            : 1254
NUMBER_OF_BYTES             : 32744
Video
ID                          : 1
Format                      : AVC
Format/Info                 : Advanced Video Codec
Format profile              : [url=mailto:High@L4.1]High@L4.1[/url]
Format settings, CABAC      : Yes
Format settings, ReFrames   : 12 frames
Codec ID                    : V_MPEG4/ISO/AVC
Duration                    : 1h 34mn
Bit rate                    : 7 162 Kbps
Width                       : 1 280 pixels
Height                      : 534 pixels
Display aspect ratio        : 2.40:1
Frame rate mode             : Constant
Frame rate                  : 23.976 fps
Color space                 : YUV
Chroma subsampling          : 4:2:0
Bit depth                   : 8 bits
Scan type                   : Progressive
Bits/(Pixel*Frame)          : 0.437
Stream size                 : 4.71 GiB (78%)
Title                       : Tracers (2015)
Writing library             : x264 core 142 r2431+42 c69a006 tMod [8-bit@all X86_64]
Encoding settings           : cabac=1 / ref=12 / deblock=1:-3:-3 / analyse=0x3:0x133 / me=umh / subme=11 / psy=1 / fade_compensate=0.00 / psy_rd=1.05:0.00 / mixed_ref=1 / me_range=24 / chroma_me=1 / trellis=2 / 8x8dct=1 / cqm=0 / deadzone=21,11 / fast_pskip=0 / chroma_qp_offset=-2 / threads=24 / lookahead_threads=4 / sliced_threads=0 / nr=0 / decimate=0 / interlaced=0 / bluray_compat=0 / constrained_intra=0 / fgo=0 / bframes=8 / b_pyramid=2 / b_adapt=2 / b_bias=0 / direct=3 / weightb=1 / open_gop=0 / weightp=2 / keyint=250 / keyint_min=23 / scenecut=40 / intra_refresh=0 / rc=crf / mbtree=0 / crf=16.5000 / qcomp=0.65 / qpmin=0:0:0 / qpmax=69:69:69 / qpstep=4 / ip_ratio=1.20 / pb_ratio=1.10 / aq=4:0.80 / aq-sensitivity=10.00 / aq-factor=1.00:1.00:1.00 / aq2=0 / aq3=0
Language                    : English
Default                     : Yes
Forced                      : No
_STATISTICS_WRITING_APP     : mkvmerge v7.8.0 ('River Man') 32bit built on Mar 27 2015 16:18:02
_STATISTICS_WRITING_DATE_UT : 2015-04-28 18:57:18
_STATISTICS_TAGS            : BPS DURATION NUMBER_OF_FRAMES NUMBER_OF_BYTES
DURATION                    : 01:34:03.430000000
NUMBER_OF_FRAMES            : 135307
NUMBER_OF_BYTES             : 5179547054
Audio #1
ID                          : 2
Format                      : AC-3
Format/Info                 : Audio Coding 3
Mode extension              : CM (complete main)
Format settings, Endianness : Big
Codec ID                    : A_AC3
Duration                    : 1h 34mn
Bit rate mode               : Constant
Bit rate                    : 384 Kbps
Channel(s)                  : 6 channels
Channel positions           : Front: L C R, Side: L R, LFE
Sampling rate               : 48.0 KHz
Bit depth                   : 16 bits
Compression mode            : Lossy
Stream size                 : 258 MiB (4%)
Title                       : DVO
Language                    : Russian
Default                     : No
Forced                      : No
Audio #2
ID                          : 3
Format                      : DTS
Format/Info                 : Digital Theater Systems
Mode                        : 16
Format settings, Endianness : Big
Codec ID                    : A_DTS
Duration                    : 1h 34mn
Bit rate mode               : Constant
Bit rate                    : 1 509 Kbps
Channel(s)                  : 6 channels
Channel positions           : Front: L C R, Side: L R, LFE
Sampling rate               : 48.0 KHz
Bit depth                   : 24 bits
Compression mode            : Lossy
Stream size                 : 1 015 MiB (16%)
Language                    : English
Default                     : Yes
Forced                      : No
Text #1
ID                          : 4
Format                      : UTF-8
Codec ID                    : S_TEXT/UTF8
Codec ID/Info               : UTF-8 Plain Text
Language                    : English
Default                     : No
Forced                      : No
Text #2
ID                          : 5
Format                      : UTF-8
Codec ID                    : S_TEXT/UTF8
Codec ID/Info               : UTF-8 Plain Text
Title                       : SDH
Language                    : English
Default                     : No
Forced                      : No
Menu
00:00:00.000                : en:00:00:00.000
00:06:28.513                : en:00:06:28.513
00:12:08.603                : en:00:12:08.603
00:19:43.182                : en:00:19:43.182
00:27:00.786                : en:00:27:00.786
00:34:38.118                : en:00:34:38.118
00:41:03.711                : en:00:41:03.711
00:48:28.072                : en:00:48:28.072
00:54:58.504                : en:00:54:58.504
00:58:33.844                : en:00:58:33.844
01:03:11.329                : en:01:03:11.329
01:10:36.941                : en:01:10:36.941
01:16:47.895                : en:01:16:47.895
01:20:06.552                : en:01:20:06.552
01:24:38.323                : en:01:24:38.323
01:28:27.219                : en:01:28:27.219
Скриншоты:
[Профиль] [ЛС]
Показать сообщения:    

Текущее время: Сегодня 04:29

Часовой пояс: GMT



Вы не можете начинать темы
Вы не можете отвечать на сообщения
Вы не можете редактировать свои сообщения
Вы не можете удалять свои сообщения
Вы не можете голосовать в опросах
Вы не можете прикреплять файлы к сообщениям
Вы не можете скачивать файлы