Трейсеры / Tracers (2015) HDRip

 
Автор Сообщение

достали все ®

Пол:

Стаж: 1 год 8 месяцев

Сообщений: 6570



Награды: 12 (Подробнее)

Mega Seeder 2 (Количество: 1) Top Releaser 3 (Количество: 1) Mega Releaser 3 (Количество: 1)
Торрент-статистика

Создавать темы 28-Апр-2015 18:01

[Цитировать]

-Трейсеры / Tracers (2015) HDRip- Производство: USA / Saban Films, Cowtown Cinema Ventures, Temple Hill Entertainment
Жанр: боевик
Режиссер: Даниэль Бенмаур
Продюсер: Марти Бауэн, Вик Годфри, Д. Скотт Лампкин
Актеры: Тэйлор Лотнер, Мари Авгеропулос, Адам Рэйнер, Рафи Гаврон, Лучиано Акуна мл., Джош Ядон, Джонни М. Ву, Сэм Медина, Амирах Ванн, Кристиан Стил
Описание:
Кэм — обычный курьер, который столкнулся с большими проблемами. Он задолжал крупную сумму денег криминальной группировке, и бандиты требуют вернуть долг в течении нескольких дней. Однажды, развозя почту на своем велосипеде, Кэм врезается в симпатичную девушку Никки, которая увлекается паркуром. Она показывает парню новый мир и обучает его различным трюкам. Кэм очень быстро учится и понимает, что это и есть дело его жизни. Вскоре он узнает, что Никки и ее друзья занимаются не совсем законными делами, и решает присоединиться к ним, чтобы отдать долг бандитам. Впереди его ждет множество опасностей, но он готов идти до конца...

Рейтинг MPAA: PG-13 - Детям до 13 лет просмотр не желателен
Дата мировой премьеры: 15 января 2015
Дата российской премьеры: 30 июля 2015, «West»
Продолжительность: 01:28:20
Качество: HDRip
Перевод: любительский (двуголосый закадровый) (Студия Пиратского Дубляжа)
Субтитры: отсутствуют
Видеокодек: XviD
Битрейт видео: ~ 1 687 kbps
Размер кадра: 720 х 304 (2,35:1)
Аудиокодек: АС3, 6 ch
Битрейт аудио: 384 kbps

MediaInfo

Общее
Полное имя                               : F:\TPe1CePy.2015.P.HDRip.1400MB.avi
Формат                                   : AVI
Формат/Информация                        : Audio Video Interleave
Размер файла                             : 1,37 Гбайт
Продолжительность                        : 1 ч. 34 м.
Общий поток                              : 2080 Кбит/сек
Программа кодирования                    : VirtualDubMod 1.5.10.2 (build 2540/release)
Библиотека кодирования                   : VirtualDubMod build 2540/release
Видео
Идентификатор                            : 0
Формат                                   : MPEG-4 Visual
Профиль формата                          : Advanced Simple@L5
Параметр BVOP формата                    : 2
Параметр QPel формата                    : Нет
Параметр GMC формата                     : Без точки перехода
Параметр матрицы формата                 : Default (MPEG)
Идентификатор кодека                     : XVID
Идентификатор кодека/Подсказка           : XviD
Продолжительность                        : 1 ч. 34 м.
Битрейт                                  : 1687 Кбит/сек
Ширина                                   : 720 пикселей
Высота                                   : 304 пикселя
Соотношение сторон                       : 2,35:1
Частота кадров                           : 23,976 кадра/сек
Цветовое пространство                    : YUV
Субдискретизация насыщенности            : 4:2:0
Битовая глубина                          : 8 бит
Тип развёртки                            : Прогрессивная
Метод сжатия                             : С потерями
Бит/(Пиксели*Кадры)                      : 0.321
Размер потока                            : 1,11 Гбайт (81%)
Библиотека кодирования                   : XviD 1.2.1 (UTC 2008-12-04)
Аудио
Идентификатор                            : 1
Формат                                   : AC-3
Формат/Информация                        : Audio Coding 3
Расширение режима                        : CM (complete main)
Параметр Endianness формата              : Big
Идентификатор кодека                     : 2000
Продолжительность                        : 1 ч. 34 м.
Вид битрейта                             : Постоянный
Битрейт                                  : 384 Кбит/сек
Каналы                                   : 6 каналов
Расположение каналов                     : Front: L C R, Side: L R, LFE
Частота                                  : 48,0 КГц
Битовая глубина                          : 16 бит
Метод сжатия                             : С потерями
Размер потока                            : 258 Мбайт (18%)
Выравнивание                             : Разделение по промежуткам
Продолжительность промежутка             : 42  мс. (1,00 видеокадр)
Время предзагрузки промежутка            : 500  мс.
Скриншоты:
-
[Профиль] [ЛС]
Показать сообщения:    

Текущее время: Сегодня 14:43

Часовой пояс: GMT



Вы не можете начинать темы
Вы не можете отвечать на сообщения
Вы не можете редактировать свои сообщения
Вы не можете удалять свои сообщения
Вы не можете голосовать в опросах
Вы не можете прикреплять файлы к сообщениям
Вы не можете скачивать файлы