Тревожный вызов / The Call (2013) BDRip 1080p

 
Автор Сообщение

sergej644 ®

Пол:

Стаж: 4 года 11 месяцев

Сообщений: 6040

Откуда: Soviet Union



Награды: Нет

Торрент-статистика

Создавать темы 21-Янв-2015 00:46

[Цитировать]

Информация о фильме
Название: Тревожный вызов
Оригинальное название: The Call
Год выхода: 2013
Жанр: триллер
Режиссер: Брэд Андерсон
В ролях: Холли Берри, Эбигейл Бреслин, Моррис Честнат, Майкл Эклунд, Майкл Империоли, Дэвид Отунга, Жустина Мачадо, Хосе Суньига, Рома Маффиа, Эви Томпсон
О фильме:
Фильм расскажет про оператора колл-центра 911, куда поступает звонок от девочки-подростка, ставшей жертвой маньяка. Героине предстоит столкнуться со своими кошмарами, чтобы спасти девушку.

Выпущено: США
Студия: TriStar Pictures
Продолжительность: 01:34:13
Перевод: Дублированный + Оригинал
Файл
Кодек: x264
Качество: BDRip (источник: BD-Remux)
Видео: 1920x1040 (1,85:1), 23.976 fps, 10702 kbps
Аудио #1: AC-3, 6 ch, 448 kbps (Rus) R5
Аудио #2: AC-3, 6 ch, 640 kbps (Eng) Оригинал
Субтитры: Английские
Скачать: семпл

Скриншоты

MI

Общее
Уникальный идентификатор : 217503376297672019336065468460899221620 (0xA3A1A0650974058798502466E503C074)
Полное имя : E:The.Call.2013.BDRip.1080p.Rus.Eng.mkv
Формат : Matroska
Версия формата : Version 4 / Version 2
Размер файла : 7,76 Гбайт
Продолжительность : 1 ч. 34 м.
Общий поток : 11,8 Мбит/сек
Название фильма : Тревожный вызов / The Call (2013)
Дата кодирования : UTC 2013-06-28 18:41:54
Программа кодирования : mkvmerge v6.2.0 ('Promised Land') built on Apr 28 2013 12:22:01
Библиотека кодирования : libebml v1.3.0 + libmatroska v1.4.0
Видео
Идентификатор : 1
Формат : AVC
Формат/Информация : Advanced Video Codec
Профиль формата : High@L4.1
Параметр CABAC формата : Да
Параметр ReFrames формата : 4 кадра
Идентификатор кодека : V_MPEG4/ISO/AVC
Продолжительность : 1 ч. 34 м.
Битрейт : 10,7 Мбит/сек
Ширина : 1920 пикселей
Высота : 1040 пикселей
Соотношение сторон : 1,85:1
Режим частоты кадров : Постоянный
Частота кадров : 23,976 кадра/сек
Цветовое пространство : YUV
Субдискретизация насыщенности : 4:2:0
Битовая глубина : 8 бит
Тип развёртки : Прогрессивная
Бит/(Пиксели*Кадры) : 0.224
Размер потока : 6,89 Гбайт (89%)
Заголовок : Release by N1NT3NDO
Библиотека кодирования : x264 core 130 r2273 b3065e6
Настройки программы : cabac=1 / ref=4 / deblock=1:-3:-3 / analyse=0x3:0x113 / me=umh / subme=10 / psy=1 / psy_rd=1.00:0.00 / mixed_ref=1 / me_range=32 / chroma_me=1 / trellis=2 / 8x8dct=1 / cqm=0 / deadzone=21,11 / fast_pskip=0 / chroma_qp_offset=-2 / threads=12 / lookahead_threads=1 / sliced_threads=0 / nr=0 / decimate=0 / interlaced=0 / bluray_compat=0 / constrained_intra=0 / bframes=5 / b_pyramid=2 / b_adapt=2 / b_bias=0 / direct=2 / weightb=1 / open_gop=0 / weightp=2 / keyint=240 / keyint_min=23 / scenecut=40 / intra_refresh=0 / rc_lookahead=80 / rc=2pass / mbtree=1 / bitrate=10702 / ratetol=1.0 / qcomp=0.60 / qpmin=0 / qpmax=69 / qpstep=4 / cplxblur=20.0 / qblur=0.5 / ip_ratio=1.40 / aq=1:0.70
Язык : English
Default : Да
Forced : Нет
Аудио #1
Идентификатор : 2
Формат : AC-3
Формат/Информация : Audio Coding 3
Расширение режима : CM (complete main)
Параметр Endianness формата : Big
Идентификатор кодека : A_AC3
Продолжительность : 1 ч. 34 м.
Вид битрейта : Постоянный
Битрейт : 448 Кбит/сек
Каналы : 6 каналов
Расположение каналов : Front: L C R, Side: L R, LFE
Частота : 48,0 КГц
Битовая глубина : 16 бит
Метод сжатия : С потерями
Размер потока : 302 Мбайт (4%)
Заголовок : Rus
Язык : Russian
Default : Да
Forced : Нет
Аудио #2
Идентификатор : 3
Формат : AC-3
Формат/Информация : Audio Coding 3
Расширение режима : CM (complete main)
Параметр Endianness формата : Big
Идентификатор кодека : A_AC3
Продолжительность : 1 ч. 34 м.
Вид битрейта : Постоянный
Битрейт : 640 Кбит/сек
Каналы : 6 каналов
Расположение каналов : Front: L C R, Side: L R, LFE
Частота : 48,0 КГц
Битовая глубина : 16 бит
Метод сжатия : С потерями
Размер потока : 431 Мбайт (5%)
Заголовок : Eng
Язык : English
Default : Нет
Forced : Нет
Текст
Идентификатор : 4
Формат : UTF-8
Идентификатор кодека : S_TEXT/UTF8
Идентификатор кодека/Информация : UTF-8 Plain Text
Заголовок : Eng
Язык : English
Default : Нет
Forced : Нет
Меню
00:00:00.000 : :Chapter 01
00:06:26.677 : :Chapter 02
00:12:30.499 : :Chapter 03
00:17:15.034 : :Chapter 04
00:24:12.409 : :Chapter 05
00:30:43.758 : :Chapter 06
00:36:00.074 : :Chapter 07
00:42:41.725 : :Chapter 08
00:46:51.891 : :Chapter 09
00:49:57.911 : :Chapter 10
00:54:50.911 : :Chapter 11
01:01:31.562 : :Chapter 12
01:06:08.171 : :Chapter 13
01:12:30.637 : :Chapter 14
01:20:04.216 : :Chapter 15
01:26:01.781 : :Chapter 16

x264

x264 [info]: frame I:955 Avg QP:15.90 size:246270
x264 [info]: frame P:36183 Avg QP:19.09 size: 86238
x264 [info]: frame B:98414 Avg QP:20.32 size: 42695

Дополнительная информация о релизе

Corrected color levels using : ColorYUV(levels="TV->PC")
Спасибо огромное уважаемому doclogan c HDClub за помощь и решение данной проблемы!
[Профиль] [ЛС]
Кто просматривает тему:

Форум Тема Автор Размер
Зарубежные Mup Юpскoго пepuода в 3Д / Jurаssіс Wоrld 3D (Колин Треворроу / Co) [2015, Фантастика, Приключения, Боевик, BDrip, 1080p] OverUnder / Вертикальная стереопара TorrentFilm 24.12 GB
Фильмы 2014 года Внеземной театр / Внеземной / E.T.X.R. / ETXR (Тревор Сэндс / Travor Sands) [2014, США, фантастика, WEB-DL] DVO (HamsterStudio) + Sub Rus + Original Eng reversefile 1.08 GB
Фильмы 2014 года Женский дом / GirlHouse (Тревор Мэтьюз) [2014, ужасы, триллер] WEB-DLRip | L BOSS 2.05 GB
Фильмы 2014 года Женский дом / GirlHouse (Тревор Мэтьюз) [2014, ужасы, триллер] WEB-DLRip | L2 BOSS 1.46 GB
Фильмы 2015 года Марсианин / The Martian (Колин Треворроу) [2015, Фантастика, приключения , WEB-DLRip-AVC 1080p] [DD5.1] [Dub Rus , Ukr , Eng]+[Sub Rus , Ukr , Eng] Враг Нароода 5.63 GB
Фильмы 2015 года Мир Юрского периода / Jurassic World (Колин Треворроу / Colin Trevorrow) [2015 г., США, Китай, фантастика, приключения, боевик, BDRip] Dub + Original Eng + Sub (Rus, Ukr, Eng) TorrentFilm 2.57 GB
Фильмы 2015 года Мир Юрского периода / Jurassic World (Колин Треворроу / Colin Trevorrow) [2015, США, Китай, Фантастика, приключения, боевик, BDRip-AVC] Dub + Original Eng, Sub (Rus, Eng) TorrentFilm 4.36 GB
Фильмы 2015 года Мир Юрского периода / Jurassic World (Колин Треворроу / Colin Trevorrow) [2015, США, Китай, Фантастика, приключения, боевик, BDRip-AVC] Dub + Sub Rus, Eng + Original Eng TorrentFilm 4.74 GB
Показать сообщения:    

Текущее время: Сегодня 04:48

Часовой пояс: GMT



Вы не можете начинать темы
Вы не можете отвечать на сообщения
Вы не можете редактировать свои сообщения
Вы не можете удалять свои сообщения
Вы не можете голосовать в опросах
Вы не можете прикреплять файлы к сообщениям
Вы не можете скачивать файлы