Тревога / Alarm (Жерар Стембридж / Gerard Stembridge) [2008, Ирландия, триллер, DVDRip] Sub Rus

 
Автор Сообщение

TorrentFilm ®

Пол:

Стаж: 2 года

Сообщений: 7741



Награды: Нет

Торрент-статистика

Создавать темы 07-Июл-2015 00:10

[Цитировать]

Тревога / Alarm
Страна: Ирландия
Жанр: триллер
Год выпуска: 2008
Продолжительность: 01:44:38
Перевод: Субтитры Митенки_Митчелла
Cубтитры: русские
Режиссер: Жерар Стембридж / Gerard Stembridge
В ролях: Рут Брэдли, Эйдан Тернер, Оуэн Роу, Том Хикки, Анита Ривз, Эммет Бергин, Алан Хоули и др.
Описание: Молодая женщина Молли переезжает из Дублина в маленький и спокойный на первый взгляд городок. Она наотрез отказывается устанавливать сигнализацию, но она еще не знает, что ее ждет...
Сэмпл: https://yadi.sk/i/HH7rAcIzhe4uV
Качество видео: DVDRip
Формат видео: AVI
Видео: Video: Xvid 720x384 23.976fps 1459kbps [V: mpeg4 advanced simple profile, yuv420p, 720x384, 1459 kb/s]
Аудио: Dolby AC3 48000Hz 6ch 448kbps [A: ac3, 48000 Hz, 5.1, 448 kb/s]
Формат субтитров: hardsub (неотключаемые)

MediaInfo

General
Complete name : D:\Alarm\Alarm.avi
Format : AVI
Format/Info : Audio Video Interleave
Format profile : OpenDML
Format settings : rec
File size : 1.40 GiB
Duration : 1h 44mn
Overall bit rate : 1 913 Kbps
Writing application : AVI-Mux GUI 1.17.8.3, Feb 16 201019:42:50
Video
ID : 0
Format : MPEG-4 Visual
Format profile : Advanced Simple@L5
Format settings, BVOP : Yes
Format settings, QPel : No
Format settings, GMC : No warppoints
Format settings, Matrix : Default (MPEG)
Codec ID : XVID
Codec ID/Hint : XviD
Duration : 1h 44mn
Bit rate : 1 460 Kbps
Width : 720 pixels
Height : 384 pixels
Display aspect ratio : 1.85:1
Frame rate : 23.976 fps
Color space : YUV
Chroma subsampling : 4:2:0
Bit depth : 8 bits
Scan type : Progressive
Compression mode : Lossy
Bits/(Pixel*Frame) : 0.220
Stream size : 1.07 GiB (76%)
Writing library : XviD 1.2.1 (UTC 2008-12-04)
Audio
ID : 1
Format : AC-3
Format/Info : Audio Coding 3
Mode extension : CM (complete main)
Format settings, Endianness : Big
Codec ID : 2000
Duration : 1h 44mn
Bit rate mode : Constant
Bit rate : 448 Kbps
Channel(s) : 6 channels
Channel positions : Front: L C R, Side: L R, LFE
Sampling rate : 48.0 KHz
Bit depth : 16 bits
Compression mode : Lossy
Stream size : 335 MiB (23%)
Alignment : Aligned on interleaves
Interleave, duration : 64 ms (1.53 video frames)
Interleave, preload duration : 192 ms
Title : 3_2ch 448Kbps DELAY 0ms english" target="_blank" alt="mba.ru" title="mba.ru" style="">english" target="_blank" alt="mba.ru" title="mba.ru" style="">english

Скриншот c названием фильма

Скриншоты






[Профиль] [ЛС]

Создавать темы 06-Авг-2015 22:25 (спустя 30 дней)

Топик был перенесен из форума Фильмы до 2014 года в форум Фильмы до 2012 года
sergej644
 

Создавать темы 12-Июн-2016 08:52 (спустя 11 месяцев 5 дней)

Топик был перенесен из форума Фильмы 2011 года в форум Фильмы 2006-2008 года
Russian Mafia
 
Кто просматривает тему:

Форум Тема Автор Размер
Зарубежные Mup Юpскoго пepuода в 3Д / Jurаssіс Wоrld 3D (Колин Треворроу / Co) [2015, Фантастика, Приключения, Боевик, BDrip, 1080p] OverUnder / Вертикальная стереопара TorrentFilm 24.12 GB
Фильмы 2014 года Внеземной театр / Внеземной / E.T.X.R. / ETXR (Тревор Сэндс / Travor Sands) [2014, США, фантастика, WEB-DL] DVO (HamsterStudio) + Sub Rus + Original Eng reversefile 1.08 GB
Фильмы 2014 года Женский дом / GirlHouse (Тревор Мэтьюз) [2014, ужасы, триллер] WEB-DLRip | L BOSS 2.05 GB
Фильмы 2014 года Женский дом / GirlHouse (Тревор Мэтьюз) [2014, ужасы, триллер] WEB-DLRip | L2 BOSS 1.46 GB
Фильмы 2015 года Марсианин / The Martian (Колин Треворроу) [2015, Фантастика, приключения , WEB-DLRip-AVC 1080p] [DD5.1] [Dub Rus , Ukr , Eng]+[Sub Rus , Ukr , Eng] Враг Нароода 5.63 GB
Фильмы 2015 года Мир Юрского периода / Jurassic World (Колин Треворроу / Colin Trevorrow) [2015 г., США, Китай, фантастика, приключения, боевик, BDRip] Dub + Original Eng + Sub (Rus, Ukr, Eng) TorrentFilm 2.57 GB
Фильмы 2015 года Мир Юрского периода / Jurassic World (Колин Треворроу / Colin Trevorrow) [2015, США, Китай, Фантастика, приключения, боевик, BDRip-AVC] Dub + Original Eng, Sub (Rus, Eng) TorrentFilm 4.36 GB
Фильмы 2015 года Мир Юрского периода / Jurassic World (Колин Треворроу / Colin Trevorrow) [2015, США, Китай, Фантастика, приключения, боевик, BDRip-AVC] Dub + Sub Rus, Eng + Original Eng TorrentFilm 4.74 GB
Показать сообщения:    

Текущее время: Сегодня 20:42

Часовой пояс: GMT



Вы не можете начинать темы
Вы не можете отвечать на сообщения
Вы не можете редактировать свои сообщения
Вы не можете удалять свои сообщения
Вы не можете голосовать в опросах
Вы не можете прикреплять файлы к сообщениям
Вы не можете скачивать файлы