Требуется папа на Рождество / Ein Vater fur Klette (2003) DVDRip

 
Автор Сообщение

sergej644 ®

Пол:

Стаж: 4 года 11 месяцев

Сообщений: 6040

Откуда: Soviet Union



Награды: Нет

Торрент-статистика

Создавать темы 07-Янв-2015 19:33

[Цитировать]

-Требуется папа на Рождество / Ein Vater fur Klette (2003) DVDRip- Год выпуска: 2003
Производство: Германия
Жанр: Семейный
Описание фильма:
Приближается Рождество, и Линда точно знает, что она хочет в подарок. Для начала ей нужен отец. Потом мама. И если совсем размечтаться - маленький братик или сестричка. Линда, которой 9 лет, круглая сирота. Она прекрасно понимает, что никакой Санта-Клаус не сможет выполнить ее желание. И если ей нужен отец, то она должна сама пойти и найти его!..
Режиссер: Питер Кахейн
Актеры: Мюриэль Баумейстер, Изабель Бонгард, Хейо фон Штеттен, Веспа Васик, Сабрина Уайт, Холгер Дямген, Райнер Фрэнк, Карл Фред Мюллер
Продолжительность: 01:29:15
Перевод: Многоголосый закадровый

Видеокодек: Xvid
Битрейт видео: ~1988 Kb/s
Размер кадра: 688 x 384
Качество видео: DVDRip
Аудиокодек: AC3 2.0
Битрейт аудио: 192 Kb/s

MediaInfo:

Общее
Полное имя : C:\12\Требуется папа на Рождество\Trebuetsya papa 2003 DVDRip.avi
Формат : AVI
Формат/Информация : Audio Video Interleave
Размер файла : 1,37 Гбайт
Продолжительность : 1 ч. 29 м.
Общий поток : 2190 Кбит/сек
Программа кодирования : FairUse Wizard
Библиотека кодирования : The best and REALLY easy backup tool
Видео
Идентификатор : 0
Формат : MPEG-4 Visual
Профиль формата : Advanced Simple@L5
Параметр BVOP формата : 1
Параметр QPel формата : Нет
Параметр GMC формата : Без точки перехода
Параметр матрицы формата : Default (MPEG)
Режим смешивания : Сжатый битовый поток
Идентификатор кодека : XVID
Идентификатор кодека/Подсказка : XviD
Продолжительность : 1 ч. 29 м.
Битрейт : 1988 Кбит/сек
Ширина : 688 пикселей
Высота : 384 пикселя
Соотношение сторон : 16:9
Частота кадров : 25,000 кадров/сек
Цветовое пространство : YUV
Субдискретизация насыщенности : 4:2:0
Битовая глубина : 8 бит
Тип развёртки : Прогрессивная
Метод сжатия : С потерями
Бит/(Пиксели*Кадры) : 0.301
Размер потока : 1,24 Гбайт (91%)
Библиотека кодирования : XviD 1.2.0.dev47 (UTC 2006-11-01)
Аудио
Идентификатор : 1
Формат : AC-3
Формат/Информация : Audio Coding 3
Расширение режима : CM (complete main)
Идентификатор кодека : 2000
Продолжительность : 1 ч. 29 м.
Вид битрейта : Постоянный
Битрейт : 192 Кбит/сек
Каналы : 2 канала
Расположение каналов : Front: L R
Частота : 48,0 КГц
Битовая глубина : 16 бит
Метод сжатия : С потерями
Размер потока : 123 Мбайт (9%)
Выравнивание : Разделение по промежуткам
Продолжительность промежутка : 40 мс. (1,00 видеокадр)
Время предзагрузки промежутка : 500 мс.
Скриншоты:
Время раздачи:Круглосуточно до 10 скачавших
[Профиль] [ЛС]

Создавать темы 06-Авг-2015 22:50 (спустя 6 месяцев 30 дней)

Топик был перенесен из форума Фильмы до 2014 года в форум Фильмы до 2012 года
sergej644
 
Кто просматривает тему:

Форум Тема Автор Размер
Фильмы 2015 года Требуется сосед / Roommate Wanted (2015) DVDRip | L1 BOSS 1.04 GB
Показать сообщения:    

Текущее время: Сегодня 20:39

Часовой пояс: GMT



Вы не можете начинать темы
Вы не можете отвечать на сообщения
Вы не можете редактировать свои сообщения
Вы не можете удалять свои сообщения
Вы не можете голосовать в опросах
Вы не можете прикреплять файлы к сообщениям
Вы не можете скачивать файлы