Траур / The Mourning (Марк Клебанофф / Marc Clebanoff) [2015, США, драма, WEB-DLRip] DVO (2D)

 
Автор Сообщение

TorrentFilm ®

Пол:

Стаж: 2 года

Сообщений: 7741



Награды: Нет

Торрент-статистика

Создавать темы 06-Авг-2015 00:10

[Цитировать]

Траур / The Mourning
Страна: США
Жанр: драма
Год выпуска: 2015
Продолжительность: 01:41:38
Перевод: Любительский (двухголосый закадровый) 2D
Cубтитры: нет
Оригинальная аудиодорожка: нет
Режиссер: Марк Клебанофф / Marc Clebanoff
В ролях: Майкл Рене Уолтон, Луис Мэндилор, Доминик Суэйн, Сэлли МакДональд, Кинга Филиппс, Ларри Хэнкин, Питер Добсон, Боб Спиллман
Описание: Эрон, которого считают погибшим на первой войне в Ираке, неожиданно возвращается домой спустя 20 лет, не постаревшим ни на день. Конспирологи считают, что он был похищен инопланетянами и не останется в городе надолго...
Доп. информация:
Перевод: Antonio
Сэмпл: http://multi-up.com/1060280
Качество видео: WEB-DLRip
Формат видео: AVI
Видео: Xvid 720x288 23.98fps 1839Kbps
Аудио: MPEG Audio Layer 3 48000Hz stereo 192Kbps

MediaInfo

General
Complete name : D:\TORRENTS\The.Mourning.2015.DVO.avi
Format : AVI
Format/Info : Audio Video Interleave
File size : 1.45 GiB
Duration : 1h 41mn
Overall bit rate : 2 040 Kbps
Video
ID : 0
Format : MPEG-4 Visual
Format profile : Simple@L5
Format settings, BVOP : No
Format settings, QPel : No
Format settings, GMC : No warppoints
Format settings, Matrix : Default (H.263)
Codec ID : XVID
Codec ID/Hint : XviD
Duration : 1h 41mn
Bit rate : 1 839 Kbps
Width : 720 pixels
Height : 288 pixels
Display aspect ratio : 2.452
Frame rate : 23.976 fps
Color space : YUV
Chroma subsampling : 4:2:0
Bit depth : 8 bits
Scan type : Progressive
Compression mode : Lossy
Bits/(Pixel*Frame) : 0.370
Stream size : 1.31 GiB (90%)
Writing library : Lavc56.13.100
Audio
ID : 1
Format : MPEG Audio
Format version : Version 1
Format profile : Layer 3
Mode : Joint stereo
Codec ID : 55
Codec ID/Hint : MP3
Duration : 1h 41mn
Source duration : 1h 41mn
Bit rate mode : Constant
Bit rate : 192 Kbps
Channel(s) : 2 channels
Sampling rate : 48.0 KHz
Compression mode : Lossy
Stream size : 140 MiB (9%)
Alignment : Aligned on interleaves
Interleave, duration : 42 ms (1.00 video frame)
Writing library : LAME3.99r
Encoding settings : -m j -V 4 -q 3 -lowpass 18.6 -b 192

Скриншот c названием фильма

Скриншоты

[Профиль] [ЛС]
Кто просматривает тему:

Форум Тема Автор Размер
Фильмы 2015 года Траур / The Mourning (2015) WEB-DLRip | L2 BOSS 1.46 GB
Показать сообщения:    

Текущее время: Сегодня 16:19

Часовой пояс: GMT



Вы не можете начинать темы
Вы не можете отвечать на сообщения
Вы не можете редактировать свои сообщения
Вы не можете удалять свои сообщения
Вы не можете голосовать в опросах
Вы не можете прикреплять файлы к сообщениям
Вы не можете скачивать файлы