Трансформеры 3: Тёмная сторона Луны в 3Д / Transformers: Dark of the Moon 3D (Майкл Бэй / Michael Bay) [2011, фантастика, боевик, приключения, BDRip-AVC] OverUnder / Вертикальная стереопара

 
Автор Сообщение

TorrentFilm ®

Пол:

Стаж: 2 года

Сообщений: 7741



Награды: Нет

Торрент-статистика

Создавать темы 01-Янв-2016 00:26

[Цитировать]

Трансформеры 3: Тёмная сторона Луны / Transformers: Dark of the Moon- Год выпуска: 2011
Страна: США
Жанр: фантастика, боевик, приключения
Продолжительность: 02:34:23
Перевод: Профессиональный (дублированный)
Субтитры: нет-Режиссер: Майкл Бэй / Michael Bay
В ролях: Шайа ЛаБаф, Джош Дюамель, Джон Туртурро, Тайриз Гибсон, Роузи Хантингтон-Уайтли, Патрик Демпси, Кевин Данн, Джули Уайт, Джон Малкович, Питер Каллен.
Описание: Для наших героев наступили печальные будни: Сэм потерял Микаэлу, правительство выпускает законодательный акт о выселении Автоботов с Земли, а пока Мегатрон скрывается после позорного поражения Фоллена, десептикон Шокуэйв, правитель Кибертрона, готовится нанести визит нашей планете с совсем недобрыми намерениями. Действие заключительной части трилогии на этот раз охватит не только Землю, но и Луну, темная сторона которой хранит не менее темные тайны.-Качество: BDRip
Контейнер: MKV
Формат 3D: OverUnder / Вертикальная стереопара
Видео кодек: x264
Аудио кодек: DTS, AC3
Видео: 1920x1600 (1.200), 23.976 fps, x264@L5.0 ~24500 kbps avg
Аудио 1: Russian 48 kHz, AC3, 3/2 (L,C,R,l,r) + LFE ch, 640.00 kbps avg | Blu-ray
Аудио 2: Russian 48 kHz, DTS, 3/2 (L,C,R,l,r) + LFE ch, 1509.00 kbps avg | BBC Spb
Аудио 3: English 48 kHz, AC3, 3/2 (L,C,R,l,r) + LFE ch, 640.00 kbps avg | Original
Медиаинфно">

Скриншоты Медиаинфно


General
Format : Matroska
File size : 30.1 GiB
Duration : 2h 34mn
Overall bit rate : 27.9 Mbps
Encoded date : UTC 2012-01-27 20:01:23
Writing application : mkvmerge v3.4.0 ('Rapunzel') сборка от May 15 2010 09:38:20
Writing library : libebml v0.8.0 + libmatroska v0.9.0
Video
ID : 1
Format : AVC
Format/Info : Advanced Video Codec
Format profile : High@L5.0
Format settings, CABAC : Yes
Format settings, ReFrames : 5 frames
Muxing mode : Container profile=Unknown@5.0
Codec ID : V_MPEG4/ISO/AVC
Duration : 2h 34mn
Bit rate : 24.5 Mbps
Width : 1 920 pixels
Height : 1 600 pixels
Display aspect ratio : 1.200
Frame rate : 23.976 fps
Color space : YUV
Chroma subsampling : 4:2:0
Bit depth : 8 bits
Scan type : Progressive
Bits/(Pixel*Frame) : 0.333
Stream size : 26.5 GiB (88%)
Writing library : x264 core 119 r2106 07efeb4
Encoding settings : cabac=1 / ref=5 / deblock=1:-3:-3 / analyse=0x3:0x113 / me=umh / subme=9 / psy=1 / psy_rd=1.00:0.15 / mixed_ref=1 / me_range=16 / chroma_me=1 / trellis=2 / 8x8dct=1 / cqm=0 / deadzone=21,11 / fast_pskip=1 / chroma_qp_offset=-3 / threads=6 / sliced_threads=0 / nr=0 / decimate=1 / interlaced=0 / bluray_compat=0 / constrained_intra=0 / bframes=4 / b_pyramid=2 / b_adapt=2 / b_bias=0 / direct=3 / weightb=1 / open_gop=0 / weightp=2 / keyint=250 / keyint_min=23 / scenecut=40 / intra_refresh=0 / rc_lookahead=40 / rc=crf / mbtree=1 / crf=18.0 / qcomp=0.60 / qpmin=10 / qpmax=69 / qpstep=4 / vbv_maxrate=40000 / vbv_bufsize=40000 / crf_max=0.0 / nal_hrd=none / ip_ratio=1.40 / aq=1:1.00
Audio #1
ID : 2
Format : AC-3
Format/Info : Audio Coding 3
Mode extension : CM (complete main)
Codec ID : A_AC3
Duration : 2h 34mn
Bit rate mode : Constant
Bit rate : 640 Kbps
Channel(s) : 6 channels
Channel positions : Front: L C R, Side: L R, LFE
Sampling rate : 48.0 KHz
Bit depth : 16 bits
Stream size : 707 MiB (2%)
Title : Дубляж
Language : Russian
Audio #2
ID : 3
Format : DTS
Format/Info : Digital Theater Systems
Codec ID : A_DTS
Duration : 2h 34mn
Bit rate mode : Constant
Bit rate : 1 510 Kbps
Channel(s) : 6 channels
Channel positions : Front: L C R, Side: L R, LFE
Sampling rate : 48.0 KHz
Bit depth : 24 bits
Stream size : 1.63 GiB (5%)
Title : Многоголосый закаровый
Language : Russian
Audio #3
ID : 4
Format : AC-3
Format/Info : Audio Coding 3
Mode extension : CM (complete main)
Codec ID : A_AC3
Duration : 2h 34mn
Bit rate mode : Constant
Bit rate : 640 Kbps
Channel(s) : 6 channels
Channel positions : Front: L C R, Side: L R, LFE
Sampling rate : 48.0 KHz
Bit depth : 16 bits
Stream size : 707 MiB (2%)
Language : English

Дополнительно

Стереоформат: OverUnder / Вертикальная стереопара
Порядок ракурсов: левый ракурс первый
Также возможен просмотр 2D версии на обычном плеере отрезав второй ракурс ffd фильтром.
Стереоформат. Вертикальная стереопара (OverUnder). Просмотр рекомендован на специализированнном оборудовании: 3D blu-ray плеер (ps3) + 3D телевизор + 3D очки или с комплектом NVIDIA® 3D Vision™, способным обеспечить работу с 3D на ПК.
Смотрим при помощи CyberLink PowerDVD 10 Ultra 3D или Arcsoft TotalMedia Theatre 5 или чем нибудь еще - на Ваше усмотрение...
[Профиль] [ЛС]
Показать сообщения:    

Текущее время: Сегодня 16:21

Часовой пояс: GMT



Вы не можете начинать темы
Вы не можете отвечать на сообщения
Вы не можете редактировать свои сообщения
Вы не можете удалять свои сообщения
Вы не можете голосовать в опросах
Вы не можете прикреплять файлы к сообщениям
Вы не можете скачивать файлы