Трансформеры: Эпоха истребления в 3Д / Transformers: Age of Extinction 3D (Майкл Бэй / Michael Bay) [2014, фантастика, боевик, приключения, BDRip-AVC] [IMAX Edition] Half SideBySide / Горизонтальная анаморфная стереопара

 
Автор Сообщение

TorrentFilm ®

Пол:

Стаж: 2 года

Сообщений: 7741



Награды: Нет

Торрент-статистика

Создавать темы 19-Дек-2014 02:01

[Цитировать]

Трансформеры: Эпоха истребления
Transformers: Age of Extinction / IMAX Edition
- Название: Трансформеры: Эпоха истребления
Оригинальное название: Transformers: Age of Extinction
Год выпуска: 2014
Страна: США, Китай
Жанр: фантастика, боевик, приключения
Продолжительность: 02:45:07
Перевод: Профессиональный (дублированный)
Русские субтитры: есть
Оригинальная аудиодорожка: английский-Режиссер: Майкл Бэй / Michael Bay
В ролях: Марк Уолберг, Никола Пельтц, Джек Рейнор, Стэнли Туччи, Келси Грэммер, Титус Уэлливер, ТиДжей Миллер, Ли Бинбин, София Майлс, Питер Каллен.
Описание: Автоботы и десептиконы покинули нашу планету после того, как полностью разрушили ее. Людям осталось собирать по кусочкам то, что еще можно было собрать, но каждый понимал, что в этом нет никакого смысла, поскольку восстановить былую мощь цивилизации просто невозможно. Но группа из нескольких влиятельных бизнесменов и выдающихся ученых собирается извлечь уроки из печального прошлого и создать новейшие технологии, о которых ранее никто даже подумать не мог. Они прекрасно понимают, что их ждет очень нелегкая работа и верят в свой успех. Однако у них остается очень мало времени, поскольку Земля оказывается под прицелом мощных древнейших трансформеров, намеренных окончательно уничтожить человечество.-Формат 3D: Half SideBySide | Горизонтальная анаморфная стереопара
Качество: BDRip 1080p | CEE
Контейнер: MKV
Видео: 1920x1080 (16:9), 23.976 fps, High Profile 4.1 ~14500 kbps
Аудио 1: Russian 48 kHz, 5.1 AC3 Dolby Digital Audio, 640.00 kbps avg | Dub CEE
Аудио 2: English 48 kHz, 5.1 AC3 Dolby Digital Audio, 640.00 kbps avg | Original
Субтитры: русские (форсированные, полные), украинские (полные), английские (полные) srt.

Инфо

Format : Matroska
File size : 18.6 GiB
Duration : 2h 45mn
Overall bit rate : 16.1 Mbps
Movie name : Transformers: Age of Extinction (2014) [3D IMAX Edition] - Release for HDCLUB
Encoded date : UTC 2014-11-14 00:04:22
Writing application : mkvmerge v3.4.0 ('Rapunzel') built on May 15 2010 09:38:20
Writing library : libebml v0.8.0 + libmatroska v0.9.0
Cover : Yes
Video
ID : 1
Format : AVC
Format/Info : Advanced Video Codec
Format profile : High@L4.1
Format settings, CABAC : Yes
Format settings, ReFrames : 4 frames
Format settings, GOP : M=8, N=16
Codec ID : V_MPEG4/ISO/AVC
Duration : 2h 45mn
Bit rate : 14.5 Mbps
Width : 1 920 pixels
Height : 1 080 pixels
Display aspect ratio : 16:9
Frame rate : 23.976 fps
Color space : YUV
Chroma subsampling : 4:2:0
Bit depth : 8 bits
Scan type : Progressive
Bits/(Pixel*Frame) : 0.292
Stream size : 16.7 GiB (90%)
Title : Transformers: Age of Extinction (2014) [3D IMAX Edition] - Release for HDCLUB
Writing library : x264 core 142 r2479kMod dd79a61
Encoding settings : cabac=1 / ref=4 / deblock=1:-3:-3 / analyse=0x3:0x133 / me=umh / subme=10 / psy=1 / fade_compensate=0.00 / psy_rd=1.05:0.00 / mixed_ref=1 / me_range=16 / chroma_me=1 / trellis=2 / 8x8dct=1 / cqm=0 / deadzone=21,11 / fast_pskip=0 / chroma_qp_offset=-2 / threads=12 / lookahead_threads=2 / sliced_threads=0 / nr=0 / decimate=0 / interlaced=0 / bluray_compat=0 / constrained_intra=0 / fgo=0 / bframes=7 / b_pyramid=2 / b_adapt=2 / b_bias=0 / direct=3 / weightb=1 / open_gop=0 / weightp=2 / keyint=250 / keyint_min=23 / scenecut=40 / intra_refresh=0 / rc=crf / mbtree=0 / crf=20.0000 / qcomp=0.60 / qpmin=0 / qpmax=69 / qpstep=4 / ip_ratio=1.20 / pb_ratio=1.20 / aq=3:0.75 / zones=3567,3826,b=1.2/7898,7977,b=1.15/10516,10563,b=1.1/12632,12693,b=1.15/12744,12803,b=1.15/12883,12915,b=1.2/12956,13078,b=1.15/13122,13251,b=1.2/13405,13501,b=1.2/20945,28095,b=1.3/40076,40343,b=1.2/40556,40939,b=1.2/44048,44143,b=1.2/53381,53432,b=1.3/55036,55093,b=1.3/55912,56572,b=1.3/56829,57041,b=1.3/58904,58942,b=1.3/59072,59099,b=1.2/59312,59351,b=1.3/59736,59889,b=1.3/60510,60678,b=1.3/60814,60880,b=1.3/61175,61234,b=1.3/61506,61586,b=1.3/61889,61923,b=1.3/62002,62022,b=1.3/62283,62309,b=1.3/62816,63094,b=1.3/64775,65461,b=1.2/65696,66366,b=1.3/80200,80406,b=1.3/91515,91668,b=1.3/97550,97726,b=1.3/105787,106181,b=1.3/106313,106432,b=1.3/106565,106672,b=1.3/106762,106866,b=1.3/107257,107695,b=1.3/109836,110356,b=1.3/111038,111070,b=1.3/111415,111460,b=1.3/111838,112829,b=1.3/113108,115439,b=1.3/115615,115803,b=1.4/115992,120399,b=1.3/121313,124769,b=1.3/125368,150460,b=1.3/160903,161280,b=1.3/165519,166349,b=1.3/167903,169593,b=1.3/178482,179543,b=1.2/179943,179995,b=1.2/181577,181769,b=1.2/183183,183328,b=1.2/188010,188668,b=1.4/189149,226085,b=1.3/226086,237536,b=0.3
Language : English
Audio #1
ID : 2
Format : AC-3
Format/Info : Audio Coding 3
Mode extension : CM (complete main)
Codec ID : A_AC3
Duration : 2h 45mn
Bit rate mode : Constant
Bit rate : 640 Kbps
Channel(s) : 6 channels
Channel positions : Front: L C R, Side: L R, LFE
Sampling rate : 48.0 KHz
Bit depth : 16 bits
Stream size : 756 MiB (4%)
Title : AC3 5.1 @ 640 kbps - DUB, Blu-ray CEE
Language : Russian
Audio #2
ID : 3
Format : AC-3
Format/Info : Audio Coding 3
Mode extension : CM (complete main)
Codec ID : A_AC3
Duration : 2h 45mn
Bit rate mode : Constant
Bit rate : 640 Kbps
Channel(s) : 6 channels
Channel positions : Front: L C R, Side: L R, LFE
Sampling rate : 48.0 KHz
Bit depth : 16 bits
Stream size : 756 MiB (4%)
Title : AC3 5.1 @ 640 kbps
Language : English
Text #1
ID : 4
Format : UTF-8
Codec ID : S_TEXT/UTF8
Codec ID/Info : UTF-8 Plain Text
Title : Forced, iTunes
Language : Russian
Text #2
ID : 5
Format : UTF-8
Codec ID : S_TEXT/UTF8
Codec ID/Info : UTF-8 Plain Text
Title : iTunes
Language : Russian
Text #3
ID : 6
Format : UTF-8
Codec ID : S_TEXT/UTF8
Codec ID/Info : UTF-8 Plain Text
Title : Blu-ray CEE
Language : Ukrainian
Text #4
ID : 7
Format : UTF-8
Codec ID : S_TEXT/UTF8
Codec ID/Info : UTF-8 Plain Text
Title : SDH, iTunes
Language : English
Text #5
ID : 8
Format : UTF-8
Codec ID : S_TEXT/UTF8
Codec ID/Info : UTF-8 Plain Text
Language : English
Text #6
ID : 9
Format : UTF-8
Codec ID : S_TEXT/UTF8
Codec ID/Info : UTF-8 Plain Text
Title : SDH
Language : English
Text #7
ID : 10
Format : UTF-8
Codec ID : S_TEXT/UTF8
Codec ID/Info : UTF-8 Plain Text
Title : SDH-COLORED
Language : English
Menu
00:00:00.000 : en:00:00:00.000
00:06:51.578 : en:00:06:51.578
00:14:33.581 : en:00:14:33.581
00:21:37.463 : en:00:21:37.463
00:30:13.395 : en:00:30:13.395
00:38:45.990 : en:00:38:45.990
00:46:08.057 : en:00:46:08.057
00:51:39.513 : en:00:51:39.513
00:59:09.337 : en:00:59:09.337
01:07:48.648 : en:01:07:48.648
01:15:14.552 : en:01:15:14.552
01:23:25.292 : en:01:23:25.292
01:29:14.724 : en:01:29:14.724
01:37:16.956 : en:01:37:16.956
01:44:35.436 : en:01:44:35.436
01:51:25.053 : en:01:51:25.053
01:57:47.936 : en:01:57:47.936
02:04:48.481 : en:02:04:48.481
02:12:35.865 : en:02:12:35.865
02:21:04.206 : en:02:21:04.206
02:28:48.670 : en:02:28:48.670
02:37:09.629 : en:02:37:09.629
Дополнительно">

Скриншоты Дополнительно

  • Релиз HDCLUB
  • Рип от EbP
  • Сохранены оригинальные чаптеры как на Blu-ray
[Профиль] [ЛС]
Показать сообщения:    

Текущее время: Сегодня 22:11

Часовой пояс: GMT



Вы не можете начинать темы
Вы не можете отвечать на сообщения
Вы не можете редактировать свои сообщения
Вы не можете удалять свои сообщения
Вы не можете голосовать в опросах
Вы не можете прикреплять файлы к сообщениям
Вы не можете скачивать файлы