Трансформеры: Последний рыцарь / Transformers: The Last Knight (2017) WEBRip 1080p | L

 
Автор Сообщение

BOSS ®

Пол:

Стаж: 2 года 11 месяцев

Сообщений: 7139

Откуда: ODESSA



Награды: 20 (Подробнее)

Mega Releaser 3 (Количество: 1) Top Releaser 2 (Количество: 1) Top Keeper 4 (Количество: 1)
Торрент-статистика

Создавать темы 09-Сен-2017 12:53

[Цитировать]

Информация о фильме
Название: Трансформеры: Последний рыцарь
Оригинальное название: Transformers: The Last Knight
Год выхода: 2017
Жанр: фантастика, боевик, триллер, приключения
Режиссер: Майкл Бэй
В ролях: Марк Уолберг, Лора Хэддок, Энтони Хопкинс, Джемма Чан, Сантьяго Кабрера, Джон Гудман, Стэнли Туччи, Джош Дюамель, Изабела Монер, Джон Туртурро
О фильме:
Оптимус Прайм исчез. Люди ведут войну с Трансформерами. Ключ к нашему будущему погребен в тайнах прошлого, в скрытой истории Трансформеров на Земле… Миссия по спасению мира ложится на плечи разношерстной компании, состоящей из Кейда Йегера, Бамблби, английского лорда и профессора из Оксфорда. Пришла пора действовать! Жертвы станут героями. Герои станут злодеями. Выстоит только один мир: их или наш.

Страна: США
Продолжительность: 02:27:17
Перевод: Любительский (многоголосый, закадровый) [MUZOBOZ]
Файл
Кодек: x.264
Качество: WEBRip 1080p
Видео: AVC, 1920x1002 (1.916), 23.976 fps, 4 859 Kbps (0.105 bit/pixel)
Звук: AC-3, 48.0 KHz, 2 ch, 384 Kbps, CBR
Субтитры: китайские [вшитые неотключаемые]
Примечание : Присутствует текстовая реклама, видео реклама вырезана

MI

Общее
Уникальный идентификатор : 208723954521294515566309462868856745682 (0x9D06C57B4796B00B9DF03F2572592ED2)
Полное имя : Transformers The Last Knight.2017.L.WEBRip.1O8Op
Формат : Matroska
Версия формата : Version 4 / Version 2
Размер файла : 5,40 Гбайт
Продолжительность : 2 ч. 27 м.
Режим общего битрейта : Переменный
Общий поток : 5245 Кбит/сек
Дата кодирования : UTC 2017-09-08 22:29:09
Программа кодирования : mkvmerge v8.3.0 ('Over the Horizon') 64bit
Библиотека кодирования : libebml v1.3.1 + libmatroska v1.4.2
Видео
Идентификатор : 1
Формат : AVC
Формат/Информация : Advanced Video Codec
Профиль формата : High@L4.1
Параметр CABAC формата : Да
Параметр ReFrames формата : 4 кадра
Идентификатор кодека : V_MPEG4/ISO/AVC
Продолжительность : 2 ч. 27 м.
Вид битрейта : Переменный
Битрейт : 4859 Кбит/сек
Максимальный битрейт : 5500 Кбит/сек
Ширина : 1920 пикселей
Высота : 1002 пикселя
Соотношение сторон : 1,916
Режим частоты кадров : Постоянный
Частота кадров : 23,976 (24000/1001) кадра/сек
Стандарт вещания : Component
Цветовое пространство : YUV
Субдискретизация насыщенности : 4:2:0
Битовая глубина : 8 бит
Тип развёртки : Прогрессивная
Бит/(Пиксели*Кадры) : 0.105
Размер потока : 5,00 Гбайт (93%)
Default : Да
Forced : Нет
Цветовой диапазон : Limited
Основные цвета : BT.709
Характеристики трансфера : BT.709
Коэффициенты матрицы : BT.709
Аудио
Идентификатор : 2
Формат : AC-3
Формат/Информация : Audio Coding 3
Расширение режима : CM (complete main)
Параметр Endianness формата : Big
Идентификатор кодека : A_AC3
Продолжительность : 2 ч. 27 м.
Вид битрейта : Постоянный
Битрейт : 384 Кбит/сек
Каналы : 2 канала
Расположение каналов : Front: L R
Частота : 48,0 КГц
Частота кадров : 31,250 кадров/сек (1536 spf)
Битовая глубина : 16 бит
Метод сжатия : С потерями
Размер потока : 405 Мбайт (7%)
Язык : Russian
Default : Да
Forced : Нет

Скриншоты

[Профиль] [ЛС]
Кто просматривает тему:

Форум Тема Автор Размер
BBC BBC: Horizon. Таинственные сигналы из космического пространства / Strange Signals from Outer Space! (Stephen Cooter) [2017 г., Документальный, научно-популярный, SATRip] skorpionN 739 MB
BBC BBC: Horizon. Таинственные сигналы из космического пространства / Strange Signals from Outer Space! [сезон 53 эпизод 3] (Stephen Cooter) [2017 г., Документальный, научно-популярный, HDTVRip-AVC 720p] skorpionN 1.57 GB
Da Vinci Learning Da Vinci Learning: Плазма: новая заря / Plasma. Ultimate Aurora (Энди Касагранд / Andy Casagrande, Томас Лукас / Thomas Lucas) [2013 г., Документальный, научно-популярный, физика и пространство,... skorpionN 716 MB
S.T.A.L.K.E.R. S.T.A.L.K.E.R.: Call of Pripyat - Пространственная аномалия (1.001 (Update 4)) (2015) PC | RePack by SeregA-Lus Richi Keeper 3.68 GB
Программы [Разное] Калькулятор транспортного налога, v. 1.1 [Android 2.3, RUS] TorrentFilm 4 MB
Программы [Разное] Спорт Трансляции v1.0 [Android 2.2, RUS + ENG] TorrentFilm 2 MB
Программы [Утилиты] Avenue (Авеню общественный транспорт) v1.8.2 [Android 2.3.6+, RUS + ENG] TorrentFilm 3 MB
Иностранные языки А. Таранов | Русско-китайский тематический словарь. Транскрипционная система Палладия. 9000 слов (2015) [PDF] достали все 3 MB
Показать сообщения:    

Текущее время: Сегодня 17:35

Часовой пояс: GMT



Вы не можете начинать темы
Вы не можете отвечать на сообщения
Вы не можете редактировать свои сообщения
Вы не можете удалять свои сообщения
Вы не можете голосовать в опросах
Вы не можете прикреплять файлы к сообщениям
Вы не можете скачивать файлы