Трансформеры: Месть падших / Transformers: Revenge of the Fallen (Майкл Бэй / Michael Bay) [2009, США, фантастика, боевик, приключения, BDRip] Dub

 
Автор Сообщение

painkiller ®

Стаж: 2 года 3 месяца

Сообщений: 582



Награды: Нет

Торрент-статистика

Создавать темы 14-Авг-2014 09:11

[Цитировать]

-Трансформеры: Месть падших / Transformers: Revenge of the Fallen
«Месть неминуема»
- Страна: США
Жанр: фантастика, боевик, приключения
Год выпуска: 2009
Продолжительность: 02:29:53
Перевод: Профессиональный (дублированный)
Cубтитры: нет
Оригинальная аудиодорожка: нет-Режиссер:
Майкл Бэй / Michael Bay-В ролях:
Шайа ЛаБаф, Меган Фокс, Изабель Лукас, Джош Дюамель, Хьюго Уивинг, Майкл Пападжон, Джон Туртурро, Америка Оливо, Рэйн Уилсон, Фрэнк Уэлкер-Описание:
Прошло два года с тех пор, как юный Сэм Уитвикки спас Вселенную, предотвратив глобальную битву между враждующими воинственными расами инопланетных роботов. Несмотря на свои героические подвиги, Сэм остается обычным подростком с обычными проблемами — поступление в колледж и родителями. Разумеется, отъезд будет тяжело воспринят лучшим другом, роботом.-Рейтинг
kinopoisk.ru: 7.223 (91 958)
imdb.com: 6.00 (244 595)
MPAA: - Детям до 13 лет просмотр не желателен-Качество видео: BDRip |
Формат видео: AVI | → //SAMPLE//
Видео: 720x304 (2.37:1), 23.976 fps, XviD build 65 ~1626 kbps avg, 0.310 bit/pixel
Аудио: 48.0 kHz, AC3 Dolby Digital, 3/2 (L,C,R,l,r) + LFE ch, ~448 kbps | DUB
Размер: 2236.53 Mb (1/2 DVD-R)
-

MediaInfo

Общее
Полное имя : A:\Фильмы\Transformers.Revenge.of.the.Fallen.2009.BDRip.XviD.2.18Gb.AC3.avi
Формат : AVI
Формат/Информация : Audio Video Interleave
Профиль формата : OpenDML
Размер файла : 2,18 Гбайт
Продолжительность : 2 ч. 29 м.
Общий поток : 2086 Кбит/сек
Программа кодирования : VirtualDubMod 1.5.10.3 | www.virtualdub-fr.org || (build 2550/release)
Библиотека кодирования : VirtualDubMod build 2550/release
Видео
Идентификатор : 0
Формат : MPEG-4 Visual
Профиль формата : Advanced Simple@L5
Параметр BVOP формата : 1
Параметр QPel формата : Нет
Параметр GMC формата : Без точки перехода
Параметр матрицы формата : Выборочная
Идентификатор кодека : XVID
Идентификатор кодека/Подсказка : XviD
Продолжительность : 2 ч. 29 м.
Битрейт : 1626 Кбит/сек
Ширина : 720 пикселей
Высота : 304 пикселя
Соотношение сторон : 2,37:1
Частота кадров : 23,976 кадра/сек
Цветовое пространство : YUV
Субдискретизация насыщенности : 4:2:0
Битовая глубина : 8 бит
Тип развёртки : Прогрессивная
Метод сжатия : С потерями
Бит/(Пиксели*Кадры) : 0.310
Размер потока : 1,70 Гбайт (78%)
Библиотека кодирования : XviD 65
Аудио
Идентификатор : 1
Формат : AC-3
Формат/Информация : Audio Coding 3
Расширение режима : CM (complete main)
Параметр Endianness формата : Big
Идентификатор кодека : 2000
Продолжительность : 2 ч. 29 м.
Вид битрейта : Постоянный
Битрейт : 448 Кбит/сек
Каналы : 6 каналов
Расположение каналов : Front: L C R, Side: L R, LFE
Частота : 48,0 КГц
Битовая глубина : 16 бит
Метод сжатия : С потерями
Размер потока : 480 Мбайт (21%)
Выравнивание : Разделение по промежуткам
Продолжительность промежутка : 42 мс. (1,00 видеокадр)
Время предзагрузки промежутка : 500 мс.

Скриншот c названием фильма

-Скриншоты
--
[Профиль] [ЛС]

Создавать темы 06-Авг-2015 23:17 (спустя 11 месяцев 23 дня)

Топик был перенесен из форума Фильмы до 2014 года в форум Фильмы до 2012 года
sergej644
 

Создавать темы 12-Июн-2016 08:48 (спустя 1 год 9 месяцев)

Топик был перенесен из форума Фильмы 2011 года в форум Фильмы 2009 года
Russian Mafia
 
Показать сообщения:    

Текущее время: Сегодня 06:17

Часовой пояс: GMT



Вы не можете начинать темы
Вы не можете отвечать на сообщения
Вы не можете редактировать свои сообщения
Вы не можете удалять свои сообщения
Вы не можете голосовать в опросах
Вы не можете прикреплять файлы к сообщениям
Вы не можете скачивать файлы