Трамбо / Trumbo (2015) BDRip 720p | Лицензия

 
Автор Сообщение

BOSS ®

Пол:

Стаж: 2 года 1 месяц

Сообщений: 3729

Откуда: ODESSA



Награды: 20 (Подробнее)

Mega Seeder 2 (Количество: 1) Top Seeder 5 (Количество: 1) Top Keeper 3 (Количество: 1)
Торрент-статистика

Создавать темы 12-Апр-2016 18:31

[Цитировать]

Информация о фильме
Название: Трамбо
Оригинальное название: Trumbo
Год выхода: 2015
Жанр: драма, биография
Режиссер: Джей Роуч
В ролях: Брайан Крэнстон, Дайан Лэйн, Хелен Миррен, Луис С.К., Эль Фаннинг, Джон Гудман, Майкл Стулбарг, Алан Тьюдик, Адевале Акинойе-Агбаже, Дин О’Горман
О фильме:
Трамбо, коммунизм и список «Голливуд 10» - основная сюжетная линия покажется связь между популярным сценаристом, политикой и черным списком людей, оказавшихся не у дел только потому, что осмелились пойти против всех течений и не отказаться от внутренних убеждений. Никто не мог и подумать, что Далтон, чьи сценарии были так популярны в 30-х годах, внезапно останется без работы. Будучи на верном, надежном пути к Аллее Славы, Трамбо оказывается на обочине любого творчества только потому, что состоял в партии американских коммунистов. Кто в конце концов сдался: сценарист или система, расскажет биографическо-документальный фильм.

Страна: США
Студия: Groundswell Productions, ShivHans Pictures
Продолжительность: 02:04:39
Перевод: Профессиональный (многоголосый, закадровый) Blu-ray RUS
Файл
Формат: Matroska
Видео: 1280x694 at 23.976 fps, x264@L4.1, ~4868 kbps avg
Аудио#1: Russian: 48 kHz, DTS, 3/2 (L,C,R,l,r) + LFE ch, ~1509.00 kbps avg |Многоголосый закадровый, Blu-ray RUS|
Аудио#2: English: 48 kHz, DTS, 3/2 (L,C,R,l,r) + LFE ch, ~1509.00 kbps avg
Субтитры: English, Romanian
***Сохранены оригинальные главы как на Blu-ray.
***Видеоряд - VietHD, сборка рипа - Womanizer0.

MI

Общее
Уникальный идентификатор : 188693961804556199937501113876785124100 (0x8DF522984D5667A1BE144E58C12FD304)
Полное имя : Trumbo.2015.720p.BluRay.DTS.x264.Rus.Eng.Subs-VietHD.mkv
Формат : Matroska
Версия формата : Version 4 / Version 2
Размер файла : 7,01 Гбайт
Продолжительность : 2 ч. 4 м.
Общий поток : 8046 Кбит/сек
Название фильма : released by aldershot
Дата кодирования : UTC 2016-04-12 16:50:14
Программа кодирования : mkvmerge v6.9.1 ('Blue Panther') 64bit built on Apr 18 2014 18:23:38
Библиотека кодирования : libebml v1.3.0 + libmatroska v1.4.1
Видео
Идентификатор : 1
Формат : AVC
Формат/Информация : Advanced Video Codec
Профиль формата : High@L4.1
Параметр CABAC формата : Да
Параметр ReFrames формата : 9 кадров
Идентификатор кодека : V_MPEG4/ISO/AVC
Продолжительность : 2 ч. 4 м.
Битрейт : 4868 Кбит/сек
Ширина : 1280 пикселей
Высота : 694 пикселя
Соотношение сторон : 1,85:1
Режим частоты кадров : Постоянный
Частота кадров : 23,976 кадра/сек
Цветовое пространство : YUV
Субдискретизация насыщенности : 4:2:0
Битовая глубина : 8 бит
Тип развёртки : Прогрессивная
Бит/(Пиксели*Кадры) : 0.229
Размер потока : 4,24 Гбайт (61%)
Заголовок : VietHD
Библиотека кодирования : x264 core 146 r2538kMod 121396c
Настройки программы : cabac=1 / ref=9 / deblock=1:-3:-3 / analyse=0x3:0x133 / me=umh / subme=10 / psy=1 / fade_compensate=0.00 / psy_rd=1.05:0.00 / mixed_ref=1 / me_range=24 / chroma_me=1 / trellis=2 / 8x8dct=1 / cqm=0 / deadzone=21,11 / fast_pskip=0 / chroma_qp_offset=-2 / threads=12 / lookahead_threads=2 / sliced_threads=0 / nr=0 / decimate=0 / interlaced=0 / bluray_compat=0 / constrained_intra=0 / fgo=0 / bframes=9 / b_pyramid=2 / b_adapt=2 / b_bias=0 / direct=3 / weightb=1 / open_gop=0 / weightp=2 / keyint=250 / keyint_min=23 / scenecut=40 / intra_refresh=0 / rc_lookahead=60 / rc=crf / mbtree=0 / crf=16.3000 / qcomp=0.65 / qpmin=0 / qpmax=69 / qpstep=4 / vbv_maxrate=62500 / vbv_bufsize=78125 / crf_max=0.0 / nal_hrd=none / filler=0 / ip_ratio=1.30 / pb_ratio=1.20 / aq=3:0.75
Язык : English
Default : Да
Forced : Нет
Цветовой диапазон : Limited
Коэффициенты матрицы : BT.709
Аудио #1
Идентификатор : 2
Формат : DTS
Формат/Информация : Digital Theater Systems
Режим : 16
Параметр Endianness формата : Big
Идентификатор кодека : A_DTS
Продолжительность : 2 ч. 4 м.
Вид битрейта : Постоянный
Битрейт : 1509 Кбит/сек
Каналы : 6 каналов
Расположение каналов : Front: L C R, Side: L R, LFE
Частота : 48,0 КГц
Битовая глубина : 24 бит
Метод сжатия : С потерями
Размер потока : 1,31 Гбайт (19%)
Заголовок : DTS 5.1 @ 1536 Kbps, Многоголосый закадровый, Blu-Ray RUS
Язык : Russian
Default : Да
Forced : Нет
Аудио #2
Идентификатор : 3
Формат : DTS
Формат/Информация : Digital Theater Systems
Режим : 16
Параметр Endianness формата : Big
Идентификатор кодека : A_DTS
Продолжительность : 2 ч. 4 м.
Вид битрейта : Постоянный
Битрейт : 1509 Кбит/сек
Каналы : 6 каналов
Расположение каналов : Front: L C R, Side: L R, LFE
Частота : 48,0 КГц
Битовая глубина : 24 бит
Метод сжатия : С потерями
Размер потока : 1,31 Гбайт (19%)
Заголовок : DTS 5.1 @ 1536Kbps, Original
Язык : English
Default : Нет
Forced : Нет
Текст #1
Идентификатор : 4
Формат : UTF-8
Идентификатор кодека : S_TEXT/UTF8
Идентификатор кодека/Информация : UTF-8 Plain Text
Заголовок : full
Язык : Romanian
Default : Нет
Forced : Нет
Текст #2
Идентификатор : 5
Формат : UTF-8
Идентификатор кодека : S_TEXT/UTF8
Идентификатор кодека/Информация : UTF-8 Plain Text
Заголовок : full
Язык : English
Default : Нет
Forced : Нет
Текст #3
Идентификатор : 6
Формат : UTF-8
Идентификатор кодека : S_TEXT/UTF8
Идентификатор кодека/Информация : UTF-8 Plain Text
Заголовок : SDH
Язык : English
Default : Нет
Forced : Нет
Меню
00:00:00.000 : en:Chapter 1
00:07:30.200 : en:Chapter 2
00:14:59.315 : en:Chapter 3
00:20:57.047 : en:Chapter 4
00:26:34.510 : en:Chapter 5
00:33:53.031 : en:Chapter 6
00:37:17.444 : en:Chapter 7
00:44:06.602 : en:Chapter 8
00:49:25.171 : en:Chapter 9
00:55:12.100 : en:Chapter 10
01:02:08.934 : en:Chapter 11
01:08:05.915 : en:Chapter 12
01:16:20.451 : en:Chapter 13
01:23:31.381 : en:Chapter 14
01:29:42.502 : en:Chapter 15
01:34:53.354 : en:Chapter 16
01:39:49.442 : en:Chapter 17
01:47:33.906 : en:Chapter 18
01:52:36.667 : en:Chapter 19
01:58:56.755 : en:Chapter 20

Скриншоты


[Профиль] [ЛС]
Показать сообщения:    

Текущее время: Сегодня 03:04

Часовой пояс: GMT



Вы не можете начинать темы
Вы не можете отвечать на сообщения
Вы не можете редактировать свои сообщения
Вы не можете удалять свои сообщения
Вы не можете голосовать в опросах
Вы не можете прикреплять файлы к сообщениям
Вы не можете скачивать файлы