Традиционные ремесла Азербайджана (RTGHD) [2014, Документальный, HDTV 1080i]

 
Автор Сообщение

TorrentFilm ®

Пол:

Стаж: 2 года

Сообщений: 7741



Награды: Нет

Торрент-статистика

Создавать темы 04-Фев-2015 00:00

[Цитировать]

Традиционные ремесла Азербайджана
Год выпуска: 2014
Страна: Россия
Жанр: Документальный
Продолжительность: 00:34:50
Перевод: Не требуется
Описание: Азербайджан - страна сокровищ. Древних и новых. Не одну тысячу лет её богатства привлекали людей со всей земли. Об истории азербайджанской культуры можно узнать не только из книг. Она зашифрована в узорах национальных ковров, отражается в отполированных боках традиционной медной посуды, звучит в народной музыке. Она живет в предметах, которые хранят тепло рук создавших их мастеров. Ведущий Игорь Максименко совершил путешествие по ремесленным городам Азербайджана, где познакомился с лучшими мастерами, которые продолжают развивать и совершенствовать древние ремесла своих предков.
Доп. информация: IPTV Remux (запись потока без перекодирования).
02.02.2015 - обновление раздачи! Вместо записи с TorrentStream (битрейт ~5 мбит) - теперь на раздаче исходник с IPTV (~8 мбит).
Тип релиза: HDTV 1080i
Контейнер: TS
Видео: AVC H.264, 1920x1080i (16:9), 25 fps, 7501 kbps, 0.145 bits/pixel
Аудио: MPEG Audio, 2 channels, 192 kbps, 48KHz

MediaInfo

GeneralID : 1 (0x1)Complete name : Традиционные ремесла Азербайджана.tsFormat : MPEG-TSFile size : 1.97 GiBDuration : 34mn 50sOverall bit rate mode : VariableOverall bit rate : 8 095 Kbps
VideoID : 601 (0x259)Menu ID : 1 (0x1)Format : AVCFormat/Info : Advanced Video CodecFormat profile : Main@L4.0Format settings, CABAC : YesFormat settings, ReFrames : 3 framesCodec ID : 27Duration : 34mn 50sBit rate : 7 501 KbpsWidth : 1 920 pixelsHeight : 1 080 pixelsDisplay aspect ratio : 16:9Frame rate : 25.000 fpsStandard : ComponentColor space : YUVChroma subsampling : 4:2:0Bit depth : 8 bitsScan type : InterlacedScan order : Top Field FirstBits/(Pixel*Frame) : 0.145Stream size : 1.83 GiB (93%)Color primaries : BT.709Transfer characteristics : BT.709Matrix coefficients : BT.709
AudioID : 602 (0x25A)Menu ID : 1 (0x1)Format : MPEG AudioFormat version : Version 1Format profile : Layer 2Codec ID : 3Duration : 34mn 50sBit rate mode : ConstantBit rate : 192 KbpsChannel(s) : 2 channelsSampling rate : 48.0 KHzCompression mode : LossyStream size : 47.8 MiB (2%)Language : Russian

Скриншоты

[Профиль] [ЛС]
Показать сообщения:    

Текущее время: Сегодня 13:04

Часовой пояс: GMT



Вы не можете начинать темы
Вы не можете отвечать на сообщения
Вы не можете редактировать свои сообщения
Вы не можете удалять свои сообщения
Вы не можете голосовать в опросах
Вы не можете прикреплять файлы к сообщениям
Вы не можете скачивать файлы