Точь-в-Точь. Новогодний выпуск [2014, Pop, Тв-шоу, HDTV 1080i]

 
Автор Сообщение

sergej644 ®

Пол:

Стаж: 4 года 11 месяцев

Сообщений: 6044

Откуда: Soviet Union



Награды: Нет

Торрент-статистика

Создавать темы 04-Янв-2015 10:22

[Цитировать]

Точь-в-Точь. Новогодний выпуск
Жанр: Pop, Тв-шоу
Продолжительность: 03:38:23
Год выпуска: 2014
Описание: Шоу перевоплощений "Точь-в-точь!", ставшее одним из музыкально-развлекательных хитов на российском телевидении в уходящем году, возвращается к зрителю в Новый год в виде грандиозного праздничного гала-вечера! На долю мастеров пластического грима выпала тройная нагрузка, зато эффект поразителен – в большинстве образов удалось достичь практически фотографического сходства. Членам жюри (Любовь Казарновская, Геннадий Хазанов, Леонид Ярмольник и Михаил Боярский) придется призвать на помощь весь свой опыт работы в проекте, чтобы догадаться, кто создал тот или иной образ. Сделать это будет невероятно трудно с учетом того, что под маской может оказаться кто угодно, а не только участники "Точь в Точь"! В новогодней версии шоу приняло участие множество звезд, ранее никогда не экспериментировавших в жанре пародии и перевоплощения!
Участники: Валерия, Дмитрий Дюжев, Натали, Жасмин, Татьяна Буланова, Юрий Гальцев, Марат Башаров, Наталья Подольская, Алсу, Александр Буйнов, Зара, Анита Цой, Витас, Дмитрий Колдун, Александр Ревва, Ани Лорак, Ирина Дубцова, Филипп Киркоров, Ольга Кормухина, Кристина Орбакайте, Дима Билан, Никита Пресняков и др.
Образы: Фрэнк Синатра, Стас Михайлов, Демис Руссос, Джордж Майкл ‘Last Christmass’, Рафаэлла Кара, Барбара Стрейзанд, Маша Распутина, Лайза Минелли, Николай Баской, Уитни Хьюстон, Адриано Челентано, Эдита Пьеха, Филипп Киркоров, ABBA, Шер, Эдит Пиаф, Тони Брэкстон, Жанна Агузарова, Андрей Мягков, Александр Абдулов, Трус-Балбес-Бывалый, Люба Успенская, София Ротару, Верка Сердючка, Валентина Толкунова, Людмила Гурченко и др.
Треклист:
Требуется помощь!

Рип чистый. Без посторонних надписей. Выкладывается как есть.
Качество: HDTV 1080i
Контейнер: TS
Видео кодек: AVC
Аудио кодек: MP2
Видео: 1920x1080 (16:9) 25.000 fps ~ 12.4 Mbps, 0.239 bit/pixel
Аудио: MPEG Audio 48000Hz stereo 192 Кбит/сек

Скриншоты


MI

General
ID                                       : 1 (0x1)
Complete name                            : E:\Точь-в-точь. Новогодний выпуск (01.01.2015) (2014, Pop, HDTV 1080i) (MYDIMKA).ts
Format                                   : MPEG-TS
File size                                : 20.4 GiB
Duration                                 : 3h 38mn
Overall bit rate mode                    : Variable
Overall bit rate                         : 13.4 Mbps
Video
ID                                       : 1603 (0x643)
Menu ID                                  : 1 (0x1)
Format                                   : AVC
Format/Info                              : Advanced Video Codec
Format profile                           : High@L4.0
Format settings, CABAC                   : Yes
Format settings, ReFrames                : 3 frames
Codec ID                                 : 27
Duration                                 : 3h 38mn
Bit rate                                 : 12.5 Mbps
Width                                    : 1 920 pixels
Height                                   : 1 080 pixels
Display aspect ratio                     : 16:9
Frame rate                               : 25.000 fps
Standard                                 : Component
Color space                              : YUV
Chroma subsampling                       : 4:2:0
Bit depth                                : 8 bits
Scan type                                : Interlaced
Scan order                               : Top Field First
Bits/(Pixel*Frame)                       : 0.241
Stream size                              : 19.1 GiB (94%)
Color primaries                          : BT.709
Transfer characteristics                 : BT.709
Matrix coefficients                      : BT.709
Audio
ID                                       : 2603 (0xA2B)
Menu ID                                  : 1 (0x1)
Format                                   : MPEG Audio
Format version                           : Version 1
Format profile                           : Layer 2
Codec ID                                 : 3
Duration                                 : 3h 38mn
Bit rate mode                            : Constant
Bit rate                                 : 192 Kbps
Channel(s)                               : 2 channels
Sampling rate                            : 48.0 KHz
Compression mode                         : Lossy
Stream size                              : 300 MiB (1%)
Language                                 : Russian
[Профиль] [ЛС]
Кто просматривает тему:

Показать сообщения:    

Текущее время: Сегодня 10:09

Часовой пояс: GMT



Вы не можете начинать темы
Вы не можете отвечать на сообщения
Вы не можете редактировать свои сообщения
Вы не можете удалять свои сообщения
Вы не можете голосовать в опросах
Вы не можете прикреплять файлы к сообщениям
Вы не можете скачивать файлы