Точки опоры (Павел Снисаренко) (1-8 из 8) [2017, Детектив, мелодрама, WEB-DLRip]

 
Автор Сообщение

Pensioner ®

Стаж: 9 месяцев

Сообщений: 244

Откуда: Казахстан



Награды: 1 (Подробнее)

За внесенный вклад в развитие сайта (Количество: 1)
Торрент-статистика

Создавать темы 08-Авг-2017 11:49

[Цитировать]

Название: Точки опоры
Год выпуска: 2017
Страна: Россия, «БФГ Медиа»
Жанр: Детектив, мелодрама
Продолжительность: x ~ 00:50:00
Перевод: Не требуется
Режиссёр: Павел Снисаренко
В ролях: Александр Лазарев (мл.), Станислав Дужников, Елена Захарова, Александр Адабашьян, Дмитрий Исаев, Анна Банщикова, Владимир Стержаков, Олег Фомин, Александр Рапопорт, Антон Макарский, Мария Горбань, Владимир Стеклов, Михаил Горский, Александр Пашутин, Евгений Кулаков, Сергей Варчук, Екатерина Архарова, Ольга Машная, Любовь Германова, Александра Назарова, Андрей Бизюк, Анастасия Шемякина, Александра Живова, Анна Галлямова, Егор Климович
Описание: Денис Негривецкий – талантливый профессор физики, еще в институте придумал свой метод, который теперь успешно использует для расследования преступлений – «метод лишней и недостающий детали». Профессор помогает своему давнему другу – районному прокурору Дмитрию Астрову. Астров – полная противоположность Негривецкому – он практичный человек и семьянин. И хотя в молодости учился на физтехе, в итоге, выбрал своим призванием защищать закон. Своей семьи у Негривецкого нет, самыми близкими люди помимо Астрова он считает свою аспирантку Александру и старичка-антиквара Якова Моисеевича. У Александры своя история. Она рано вышла замуж, по большой любви. Ее отец обещал ее мужу Кириллу головокружительную карьеру, но … умер, не успев сдержать обещание. Теперь Кирилл во всех своих бедах и нереализованных мечтах винит Сашу. Девушка живет как в аду, и компания друзей - ее единственная отдушина. Саша давно влюблена в профессора Негривецкого и неумело это скрывает. Это заметно всем, кроме самого предмета любви. Особенно переживает за Сашеньку Яков Моисеевич, в лавке которого и собираются друзья для обсуждения всех насущных проблем. Собачка антиквара – такса Пыльный Кацо – любимец всей четверки.Используя метод Негривецкого друзья успешно расследуют даже самые запутанные преступления…
Доп. информация:

Внимание! Раздача ведётся путём добавления новых серий

Раздача ведётся путём добавления новых серий, при каждом добавлении создаётся новый торрент. Чтобы начать докачку новой серии, пользователям необходимо сделать следующее:
- Остановить скачивание.
- Удалить старый торрент у себя из клиента (старые серии удалять не надо).
- Скачать новый торрент и запустить его у себя в клиенте вместо старого, при этом указать клиенту путь в старую папку куда и должно происходить скачивание новых серий.
Ваш клиент при этом должен произвести хеширование (проверку) старой папки (если не производит сам - помогите ему сделать это), и будет докачивать только те серии которых у вас ещё нет. Старые серии при этом не удаляются, а продолжают раздаваться!
Если вы уже удалили старые серии, то предотвратить повторную закачку старых серий можно, отжав галочку в соответствующих местах при запуске нового торрента. По возможности, желательно не удалять старые серии как можно дольше, чтобы релизер не столько продолжал раздавать старые серии, а смог сконцентрироваться на новых.
Релиз от: Рип от:
bond74
Качество: WEB-DLRip
Формат: AVI
Видео кодек: XviD
Аудио кодек: AC3
Видео: ~ 1674 Кбит/с, 720x400
Аудио: 2 ch, 192 Кбит/с

MediaInfo

Общее
Полное имя : D:\моё видио\Точки опоры. 2017.WEB-DLRip.Files-x\01.Точки опоры. 2017.WEB-DLRip.Files-x.avi
Формат : AVI
Формат/Информация : Audio Video Interleave
Размер файла : 648 Мбайт
Продолжительность : 54 м.
Общий поток : 1670 Кбит/сек
Программа кодирования : VirtualDubMod 1.5.10.3 | www.virtualdub-fr.org || (build 2550/release)
Библиотека кодирования : VirtualDubMod build 2550/release
Видео
Идентификатор : 0
Формат : MPEG-4 Visual
Профиль формата : Advanced Simple@L5
Параметр BVOP формата : 1
Параметр QPel формата : Нет
Параметр GMC формата : Без точки перехода
Параметр матрицы формата : Выборочная
Идентификатор кодека : XVID
Идентификатор кодека/Подсказка : XviD
Продолжительность : 54 м.
Битрейт : 1468 Кбит/сек
Ширина : 720 пикселей
Высота : 400 пикселей
Соотношение сторон : 16:9
Частота кадров : 25,000 кадров/сек
Цветовое пространство : YUV
Субдискретизация насыщенности : 4:2:0
Битовая глубина : 8 бит
Тип развёртки : Прогрессивная
Метод сжатия : С потерями
Бит/(Пиксели*Кадры) : 0.204
Размер потока : 570 Мбайт (88%)
Библиотека кодирования : XviD 73
Аудио
Идентификатор : 1
Формат : AC-3
Формат/Информация : Audio Coding 3
Расширение режима : CM (complete main)
Параметр Endianness формата : Big
Идентификатор кодека : 2000
Продолжительность : 54 м.
Вид битрейта : Постоянный
Битрейт : 192 Кбит/сек
Каналы : 2 канала
Расположение каналов : Front: L R
Частота : 48,0 КГц
Битовая глубина : 16 бит
Метод сжатия : С потерями
Размер потока : 74,5 Мбайт (11%)
Выравнивание : Разделение по промежуткам
Продолжительность промежутка : 40 мс. (1,00 видеокадр)
Время предзагрузки промежутка : 500 мс.

Скриншоты

Добавлены 1-8 серии.
Сериал залит полностью.


Последний раз редактировалось: Pensioner (2017-08-11 12:58), всего редактировалось 2 раз(а)
[Профиль] [ЛС]

Pensioner ®

Стаж: 9 месяцев

Сообщений: 244

Откуда: Казахстан



Награды: 1 (Подробнее)

За внесенный вклад в развитие сайта (Количество: 1)
Торрент-статистика

Создавать темы 10-Авг-2017 14:57 (спустя 2 дня 3 часа)

[Цитировать]

Добавлены 5-6 серии.
[Профиль] [ЛС]
Кто просматривает тему:

Форум Тема Автор Размер
Программы [Справочник] Fastwords - Английские карточки слов [Android 2.3, RUS] TorrentFilm 3 MB
Программы [Справочник] Английские карточки слов + Old-School 8-bit radio [Android 2.3, RUS + ENG] TorrentFilm 3 MB
Разная литература Владимир Васичкин | Исцеляющие точки организма. Самые надежные техники самопомощи (2015) [FB2, EPUB] достали все 6 MB
Фильмы 2012 года Деточки (2012) WEBRip BOSS 751 MB
Разная литература Дмитрий Коваль | Избавиться от боли за 30 секунд! Секретные точки здоровья. Тайны древнего Китая [2015] [FB2] достали все 4 MB
Разная литература Ки Шенг Ю | Точки жизни. Акупунктурный массаж для снятия боли (2013) [FB2, RTF] достали все 9 MB
Фильмы (DVD 5/9) Небесные ласточки (Леонид Квинихидзе) [1976, СССР, мюзикл, лирическая комедия, DVD5 (Сжатый)] TorrentFilm 4.36 GB
Документальные HD С точки зрения науки (29 выпусков) / Naked Science (German Gutierrez) [2007-2011 г., Документальный цикл, познавательный, HDTV 1080i] TorrentFilm 63.33 GB
Показать сообщения:    

Текущее время: Сегодня 17:33

Часовой пояс: GMT



Вы не можете начинать темы
Вы не можете отвечать на сообщения
Вы не можете редактировать свои сообщения
Вы не можете удалять свои сообщения
Вы не можете голосовать в опросах
Вы не можете прикреплять файлы к сообщениям
Вы не можете скачивать файлы