Тот самый человек / The Man (2005) WEB-DL 720p | P, P2

 
Автор Сообщение

sergej644 ®

Пол:

Стаж: 4 года 11 месяцев

Сообщений: 6046

Откуда: Soviet Union



Награды: Нет

Торрент-статистика

Создавать темы 20-Июл-2015 12:58

[Цитировать]

Информация о фильме
Название: Тот самый человек
Оригинальное название: The Man
Год выхода: 2005
Жанр: боевик, комедия, криминал
Режиссер: Лес Мейфилд
В ролях: Сэмюэл Л. Джексон, Юджин Леви, Мигель Феррер, Люк Госс, Сьюзи Эссман, Энтони Маки, Гиги Райс, Рэйчел Кроуфорд, Филип Акин, Кристофер Мюррэй
О фильме: В результате ошибки по установлению личности тайный Федеральный агент Деррик Ванн оказывается в одной команде с самым неподходящим на то партнером — приветливым поставщиком стоматологической компании Энди Фидлером.
В череде насыщенных и невероятно веселых приключений, разворачивающихся на улицах Детройта, эта неподходящая парочка пытается провернуть искрометную операцию и тем самым распутать убийство бывшего напарника Ванна. Но по пути они обнаруживают то, чего даже и не ожидали…

Выпущено: Германия, США / New Line Cinema, Fried Films, Meradin Productions
Продолжительность: 01:19:48
Перевод 1: Профессиональный (многоголосый закадровый) Tycoon
Перевод 2: Профессиональный (двухголосый закадровый) Universal
Файл
Формат: MKV
Качество: WEB-DL 720p
Видео: 1280x718 (16:9), 23.976 fps, AVC, ~3869 Kbps, 0.176 bits/pixel
Звук: 48KHz, AC3, 6ch, 384 Kb/s | Rus
Звук: 48KHz, AC3, 6ch, 384 Kb/s | Eng
Субтитры: русские, английские
Скачать: Сэмпл

Media Info

General
Unique ID : 229393292832099253562867994931040232915 (0xAC938A8A299BE9C5B321006F3C2625D3)
Complete name : C:The Man. WEB-DL 720p.mkv
Format : Matroska
Format version : Version 4 / Version 2
File size : 3.02 GiB
Duration : 1h 23mn
Overall bit rate : 5 188 Kbps
Movie name :
Encoded date : UTC 2015-07-12 18:13:33
Writing application : mkvmerge v8.1.0 ('Psychedelic Postcard') 64bit
Writing library : libebml v1.3.1 + libmatroska v1.4.2
DURATION : 01:18:41.210000000
NUMBER_OF_FRAMES : 1314
NUMBER_OF_BYTES : 48076
_STATISTICS_WRITING_APP : mkvmerge v8.1.0 ('Psychedelic Postcard') 64bit
_STATISTICS_WRITING_DATE_UT : 2015-07-12 18:13:33
_STATISTICS_TAGS : BPS DURATION NUMBER_OF_FRAMES NUMBER_OF_BYTES
Video
ID : 1
Format : AVC
Format/Info : Advanced Video Codec
Format profile : High@L3.1
Format settings, CABAC : No
Format settings, ReFrames : 2 frames
Codec ID : V_MPEG4/ISO/AVC
Duration : 1h 23mn
Bit rate : 3 869 Kbps
Width : 1 280 pixels
Height : 718 pixels
Display aspect ratio : 16:9
Frame rate mode : Constant
Frame rate : 23.976 fps
Color space : YUV
Chroma subsampling : 4:2:0
Bit depth : 8 bits
Scan type : Progressive
Bits/(Pixel*Frame) : 0.176
Stream size : 2.25 GiB (75%)
Language : English
Default : Yes
Forced : No
Color range : Limited
Color primaries : BT.709
Transfer characteristics : BT.709
Matrix coefficients : BT.709
Audio #1
ID : 2
Format : AC-3
Format/Info : Audio Coding 3
Mode extension : CM (complete main)
Format settings, Endianness : Big
Codec ID : A_AC3
Duration : 1h 23mn
Bit rate mode : Constant
Bit rate : 448 Kbps
Channel(s) : 6 channels
Channel positions : Front: L C R, Side: L R, LFE
Sampling rate : 48.0 KHz
Compression mode : Lossy
Stream size : 267 MiB (9%)
Title : Tycoon
Language : Russian
Default : Yes
Forced : No
Audio #2
ID : 3
Format : AC-3
Format/Info : Audio Coding 3
Mode extension : CM (complete main)
Format settings, Endianness : Big
Codec ID : A_AC3
Duration : 1h 23mn
Bit rate mode : Constant
Bit rate : 384 Kbps
Channel(s) : 6 channels
Channel positions : Front: L C R, Side: L R, LFE
Sampling rate : 48.0 KHz
Compression mode : Lossy
Stream size : 229 MiB (7%)
Title : Universal
Language : Russian
Default : No
Forced : No
Audio #3
ID : 4
Format : AC-3
Format/Info : Audio Coding 3
Mode extension : CM (complete main)
Format settings, Endianness : Big
Codec ID : A_AC3
Duration : 1h 23mn
Bit rate mode : Constant
Bit rate : 384 Kbps
Channel(s) : 6 channels
Channel positions : Front: L C R, Side: L R, LFE
Sampling rate : 48.0 KHz
Compression mode : Lossy
Stream size : 229 MiB (7%)
Language : English
Default : No
Forced : No
Text #1
ID : 5
Format : UTF-8
Codec ID : S_TEXT/UTF8
Codec ID/Info : UTF-8 Plain Text
Language : Russian
Default : No
Forced : No
Text #2
ID : 6
Format : UTF-8
Codec ID : S_TEXT/UTF8
Codec ID/Info : UTF-8 Plain Text
Language : English
Default : No
Forced : No

Скриншоты

[Профиль] [ЛС]

Создавать темы 06-Авг-2015 22:23 (спустя 17 дней)

Топик был перенесен из форума Фильмы до 2014 года в форум Фильмы до 2012 года
sergej644
 
Кто просматривает тему:

Показать сообщения:    

Текущее время: Сегодня 22:40

Часовой пояс: GMT



Вы не можете начинать темы
Вы не можете отвечать на сообщения
Вы не можете редактировать свои сообщения
Вы не можете удалять свои сообщения
Вы не можете голосовать в опросах
Вы не можете прикреплять файлы к сообщениям
Вы не можете скачивать файлы