Тор в 3Д / Thor 3D (Кеннет Брэна, Джосс Уидон / Kenneth Branagh, Joss Whedon) [2011, фэнтези, боевик, приключения, BDRip-AVC] Half OverUnder / Вертикальная анаморфная стереопара

 
Автор Сообщение

TorrentFilm ®

Пол:

Стаж: 2 года

Сообщений: 7741



Награды: Нет

Торрент-статистика

Создавать темы 02-Янв-2016 00:01

[Цитировать]

Тор в 3Д / Thor 3D Год выпуска: 2011
Страна: США
Студия: Marvel Entertainment, Marvel Studios Inc., Paramount Pictures
Слоган: «Мужество бессмертно»
Жанр: фэнтези, боевик, приключения
Продолжительность: 01:54:50
Перевод: Профессиональный (дублированный) + украинский дубляж + английская аудиодорога
Русские субтитры: есть
Режиссер: Кеннет Брэна, Джосс Уидон / Kenneth Branagh, Joss Whedon
В ролях: Крис Хемсворт, Натали Портман, Энтони Хопкинс, Том Хиддлстон, Стеллан Скарсгард, Кэт Деннингс, Кларк Грегг, Идрис Эльба, Колм Фиор, Рэй Стивенсон
Роли дублировали: Татьяна Шитова, Александр Гаврилин, Рудольф Панков, Василий Бочкарев, Полина Чекан
Описание:
Эпическое приключение происходит как на нашей планете Земля, так и в вымышленном королевстве богов Асгарде. В центре истории — Могучий Тор, сильный, но высокомерный воин, чьи безрассудные поступки возрождают древнюю войну в Асгарде. Тора отправляют в ссылку на Землю, лишают сил и заставляют жить среди обычных людей в качестве наказания…
Качество: BDRip-AVC, 1080p
Контейнер: MKV
Формат 3D: Half OverUnder / Вертикальная анаморфная стереопара
Порядок ракурсов: левый ракурс первый
Видео кодек: x264
Аудио кодек: AC3
Видео: AVC / High@L4.1 / 2 pass / 23,976 fps / 1920х1080p / 11,8 Мbps / 0.237
Аудио 1: AC3 / 5.1 ch / 640 kbps / Русский дубляж BD CEE
Аудио 2: AC3 / 5.1 ch / 448 kbps / Украинский дубляж R5
Аудио 3: AC3 / 5.1 ch / 640 kbps / Original BD CEE
Субтитры: Русские (Full), украинские (Full), английские (Full-SDH)
Дополнительно: Сохранены оригинальные чаптеры как на Blu-ray
Рип от: Killbrain
----------------------------------------------------------------------------------------

----------------------------------------------------------------------------------------
Проверено на оборудовании:
3D медиаплеер: iconBIT XDS73D
3D телевизор: 3D LED-Телевизор 40" Samsung UE40 ES6850M
----------------------------------------------------------------------------------------

Знаете ли вы, что...

Дополнительно о фильме:

Технические детали съёмки:

Спецэффекты, студия дубляжа, прокат:

Инфо Log x264:

MediaInfo:

Общее
Уникальный идентификатор : 202090437689891751040962599961301540875 (0x980933D9CD0A21349F493319D42EE00B)
Полное имя : F:\Скачка торрент\Thor.2011.3D.BDRip1080p.2pass.halfOU(Killbrain).mkv
Формат : Matroska
Версия формата : Version 2
Размер файла : 10,8 Гбайт
Продолжительность : 1 ч. 54 м.
Общий поток : 13,5 Мбит/сек
Название фильма : Thor 3D (2011) by Killbrain
Дата кодирования : UTC 2012-11-14 05:06:23
Программа кодирования : mkvmerge v5.8.0 ('No Sleep / Pillow') built on Sep 2 2012 15:37:04
Библиотека кодирования : libebml v1.2.3 + libmatroska v1.3.0
Видео
Идентификатор : 1
Формат : AVC
Формат/Информация : Advanced Video Codec
Профиль формата : High@L4.1
Параметр CABAC формата : Да
Параметр ReFrames формата : 4 кадра
Идентификатор кодека : V_MPEG4/ISO/AVC
Продолжительность : 1 ч. 54 м.
Битрейт : 11,8 Мбит/сек
Ширина : 1920 пикселей
Высота : 1080 пикселей
Соотношение сторон : 16:9
Режим частоты кадров : Постоянный
Частота кадров : 23,976 кадра/сек
Цветовое пространство : YUV
Субдискретизация насыщенности : 4:2:0
Битовая глубина : 8 бит
Тип развёртки : Прогрессивная
Бит/(Пиксели*Кадры) : 0.237
Размер потока : 9,23 Гбайт (85%)
Заголовок : Thor 3D (2011)
Библиотека кодирования : x264 core 128 r2216 198a7ea
Настройки программы : cabac=1 / ref=4 / deblock=1:-3:-3 / analyse=0x3:0x113 / me=umh / subme=9 / psy=1 / psy_rd=1.00:0.15 / mixed_ref=1 / me_range=16 / chroma_me=1 / trellis=2 / 8x8dct=1 / cqm=0 / deadzone=21,11 / fast_pskip=1 / chroma_qp_offset=-3 / threads=3 / lookahead_threads=1 / sliced_threads=0 / slices=4 / nr=0 / decimate=1 / interlaced=0 / bluray_compat=0 / constrained_intra=0 / bframes=6 / b_pyramid=2 / b_adapt=2 / b_bias=0 / direct=3 / weightb=1 / open_gop=0 / weightp=2 / keyint=240 / keyint_min=23 / scenecut=40 / intra_refresh=0 / rc_lookahead=60 / rc=2pass / mbtree=1 / bitrate=11800 / ratetol=1.0 / qcomp=0.70 / qpmin=0 / qpmax=69 / qpstep=4 / cplxblur=20.0 / qblur=0.5 / vbv_maxrate=40000 / vbv_bufsize=40000 / nal_hrd=none / frame-packing=4 / ip_ratio=1.40 / aq=1:1.00
Язык : English
Default : Да
Forced : Нет
Аудио #1
Идентификатор : 2
Формат : AC-3
Формат/Информация : Audio Coding 3
Расширение режима : CM (complete main)
Параметр Endianness формата : Big
Идентификатор кодека : A_AC3
Продолжительность : 1 ч. 54 м.
Вид битрейта : Постоянный
Битрейт : 640 Кбит/сек
Каналы : 6 каналов
Расположение каналов : Front: L C R, Side: L R, LFE
Частота : 48,0 КГц
Битовая глубина : 16 бит
Метод сжатия : С потерями
Размер потока : 526 Мбайт (5%)
Заголовок : AC3 / 5.1 ch / 640 kbps / Русский дубляж BD3D CEE
Язык : Russian
Default : Да
Forced : Нет
Аудио #2
Идентификатор : 3
Формат : AC-3
Формат/Информация : Audio Coding 3
Расширение режима : CM (complete main)
Параметр Endianness формата : Big
Идентификатор кодека : A_AC3
Продолжительность : 1 ч. 54 м.
Вид битрейта : Постоянный
Битрейт : 448 Кбит/сек
Каналы : 6 каналов
Расположение каналов : Front: L C R, Side: L R, LFE
Частота : 48,0 КГц
Битовая глубина : 16 бит
Метод сжатия : С потерями
Размер потока : 368 Мбайт (3%)
Заголовок : AC3 / 5.1 ch / 448 kbps / Украинский дубляж R5
Язык : Ukrainian
Default : Нет
Forced : Нет
Аудио #3
Идентификатор : 4
Формат : AC-3
Формат/Информация : Audio Coding 3
Расширение режима : CM (complete main)
Параметр Endianness формата : Big
Идентификатор кодека : A_AC3
Продолжительность : 1 ч. 54 м.
Вид битрейта : Постоянный
Битрейт : 640 Кбит/сек
Каналы : 6 каналов
Расположение каналов : Front: L C R, Side: L R, LFE
Частота : 48,0 КГц
Битовая глубина : 16 бит
Метод сжатия : С потерями
Размер потока : 526 Мбайт (5%)
Заголовок : AC3 / 5.1 ch / 640 kbps / Original BD3D CEE
Язык : English
Default : Нет
Forced : Нет
Текст #1
Идентификатор : 5
Формат : UTF-8
Идентификатор кодека : S_TEXT/UTF8
Идентификатор кодека/Информация : UTF-8 Plain Text
Заголовок : Full
Язык : Russian
Default : Нет
Forced : Нет
Текст #2
Идентификатор : 6
Формат : UTF-8
Идентификатор кодека : S_TEXT/UTF8
Идентификатор кодека/Информация : UTF-8 Plain Text
Заголовок : Full
Язык : Ukrainian
Default : Нет
Forced : Нет
Текст #3
Идентификатор : 7
Формат : UTF-8
Идентификатор кодека : S_TEXT/UTF8
Идентификатор кодека/Информация : UTF-8 Plain Text
Заголовок : Full [SDH]
Язык : English
Default : Нет
Forced : Нет
Меню
00:00:00.000 : :Chapter 01
00:10:38.137 : :Chapter 02
00:17:33.135 : :Chapter 03
00:26:02.602 : :Chapter 04
00:32:28.196 : :Chapter 05
00:37:28.412 : :Chapter 06
00:42:14.198 : :Chapter 07
00:52:10.377 : :Chapter 08
01:01:24.972 : :Chapter 09
01:08:45.538 : :Chapter 10
01:15:39.159 : :Chapter 11
01:21:19.249 : :Chapter 12
01:30:35.346 : :Chapter 13
01:40:58.177 : :Chapter 14
01:45:13.724 : :Chapter 15
01:53:06.196 : :Chapter 16

Скриншоты:

Чёрно-белые скриншоты в анаглифе для оценки качества 3Д:

Немного рецензий с Кинопоиска.Ру:



[Профиль] [ЛС]
Показать сообщения:    

Текущее время: Сегодня 08:49

Часовой пояс: GMT



Вы не можете начинать темы
Вы не можете отвечать на сообщения
Вы не можете редактировать свои сообщения
Вы не можете удалять свои сообщения
Вы не можете голосовать в опросах
Вы не можете прикреплять файлы к сообщениям
Вы не можете скачивать файлы