Торнадо / Tornado - Der Zorn des Himmels (Андреас Линке / Andreas Linke) [2006, Германия, Катастрофа, триллер, драма, DVB] DVO

 
Автор Сообщение

TorrentFilm ®

Пол:

Стаж: 2 года

Сообщений: 7741



Награды: Нет

Торрент-статистика

Создавать темы 29-Дек-2014 00:15

[Цитировать]

Торнадо / Tornado - Der Zorn des Himmels Страна: Германия
Жанр: Катастрофа, триллер, драма
Год выпуска: 2006
Продолжительность: 01:23:41 + 01:25:40
Перевод: Профессиональный (двухголосый закадровый)
Cубтитры: нет
Режиссер: Андреас Линке / Andreas Linke
В ролях: Матиас Кеберлин, Мина Тандер, Саша Гёпель, Лиза Мартинек, Рудольф Ковальски, Мартин Линдоу, Харольд Шротт, Маркус Бойсен, Хансюрген Хюрриг. Якоб Маченц
Описание: Ян Бергер возвращается на родину в Германию после того, как три года изучал активность ураганных ветров в США, и предупреждает об опасности, которую несут торнадо и смерчи всей Европе. Доктор Юрген Бергер, отец Яна и руководитель Берлинской метеостанции, не верит сыну и считает его предупреждения излишним паникерством.
Однако глава национальной пожарной службы Андреас Шютте склонен прислушиваться к словам Яна. И действительно вскоре ситуация выходит из-под контроля, когда к столице приближается гигантский разрушительный смерч…
Сэмпл: http://sendfile.su/1063153

Качество видео: DVB
Формат видео: TS
Видео: AVC/H.264, 720x576 (16:9), 25 fps, 2377 (2037) kbps
Аудио: русский, Mp-2, 48 kHz, 2 ch, 192 kbps

MediaInfo1 серия

Общее
Идентификатор : 1 (0x1)
Полное имя : D:\Tornado - Der Zorn des Himmels (1,2 серия)\Tornado - Der Zorn des Himmels (01 серия).ts
Формат : MPEG-TS
Размер файла : 1,58 Гбайт
Продолжительность : 1 ч. 23 м.
Режим общего битрейта : Переменный
Общий поток : 2704 Кбит/сек
Видео
Идентификатор : 1321 (0x529)
Идентификатор меню : 1 (0x1)
Формат : AVC
Формат/Информация : Advanced Video Codec
Профиль формата : Main@L3.0
Параметр CABAC формата : Да
Параметр ReFrames формата : 3 кадра
Идентификатор кодека : 27
Продолжительность : 1 ч. 23 м.
Битрейт : 2377 Кбит/сек
Ширина : 720 пикселей
Высота : 576 пикселей
Соотношение сторон : 16:9
Частота кадров : 25,000 кадров/сек
Стандарт вещания : Component
Цветовое пространство : YUV
Субдискретизация насыщенности : 4:2:0
Битовая глубина : 8 бит
Тип развёртки : Чересстрочная
Порядок развёртки : Верхнее поле первое
Бит/(Пиксели*Кадры) : 0.229
Размер потока : 1,39 Гбайт (88%)
Основные цвета : BT.601 PAL
Характеристики трансфера : BT.470 System B, BT.470 System G
Коэффициенты матрицы : BT.601
Аудио
Идентификатор : 1322 (0x52A)
Идентификатор меню : 1 (0x1)
Формат : MPEG Audio
Версия формата : Version 1
Профиль формата : Layer 2
Идентификатор кодека : 3
Продолжительность : 1 ч. 23 м.
Вид битрейта : Постоянный
Битрейт : 192 Кбит/сек
Каналы : 2 канала
Частота : 48,0 КГц
Метод сжатия : С потерями
Размер потока : 115 Мбайт (7%)
Язык : Russian

2 серия

Общее
Идентификатор : 1 (0x1)
Полное имя : D:\Tornado - Der Zorn des Himmels (1,2 серия)\Tornado - Der Zorn des Himmels (02 серия).ts
Формат : MPEG-TS
Размер файла : 1,40 Гбайт
Продолжительность : 1 ч. 25 м.
Режим общего битрейта : Переменный
Общий поток : 2347 Кбит/сек
Видео
Идентификатор : 1321 (0x529)
Идентификатор меню : 1 (0x1)
Формат : AVC
Формат/Информация : Advanced Video Codec
Профиль формата : Main@L3.0
Параметр CABAC формата : Да
Параметр ReFrames формата : 3 кадра
Идентификатор кодека : 27
Продолжительность : 1 ч. 25 м.
Битрейт : 2037 Кбит/сек
Ширина : 720 пикселей
Высота : 576 пикселей
Соотношение сторон : 16:9
Частота кадров : 25,000 кадров/сек
Стандарт вещания : Component
Цветовое пространство : YUV
Субдискретизация насыщенности : 4:2:0
Битовая глубина : 8 бит
Тип развёртки : Чересстрочная
Порядок развёртки : Верхнее поле первое
Бит/(Пиксели*Кадры) : 0.196
Размер потока : 1,22 Гбайт (87%)
Основные цвета : BT.601 PAL
Характеристики трансфера : BT.470 System B, BT.470 System G
Коэффициенты матрицы : BT.601
Аудио
Идентификатор : 1322 (0x52A)
Идентификатор меню : 1 (0x1)
Формат : MPEG Audio
Версия формата : Version 1
Профиль формата : Layer 2
Идентификатор кодека : 3
Продолжительность : 1 ч. 25 м.
Вид битрейта : Постоянный
Битрейт : 192 Кбит/сек
Каналы : 2 канала
Частота : 48,0 КГц
Метод сжатия : С потерями
Размер потока : 118 Мбайт (8%)
Язык : Russian

Скриншот c названием фильма

Скриншоты

[Профиль] [ЛС]

Создавать темы 06-Авг-2015 22:53 (спустя 7 месяцев 8 дней)

Топик был перенесен из форума Фильмы до 2014 года в форум Фильмы до 2012 года
sergej644
 
Показать сообщения:    

Текущее время: Сегодня 18:35

Часовой пояс: GMT



Вы не можете начинать темы
Вы не можете отвечать на сообщения
Вы не можете редактировать свои сообщения
Вы не можете удалять свои сообщения
Вы не можете голосовать в опросах
Вы не можете прикреплять файлы к сообщениям
Вы не можете скачивать файлы