Торжественный (Праздничный) концерт ко Дню Победы + Салют (2015.05.09) HDTV [H.264/1080i]

 
Автор Сообщение

достали все ®

Пол:

Стаж: 1 год 8 месяцев

Сообщений: 6554



Награды: 12 (Подробнее)

Mega Seeder 2 (Количество: 1) Mega Releaser 3 (Количество: 1) Mega Seeder 1 (Количество: 1)
Торрент-статистика

Создавать темы 10-Май-2015 10:57

[Цитировать]

- Торжественный концерт ко Дню Победы + Салют (2015.05.09) HDTV [H.264/1080i] - Телекомпания: Первый канал HD
Жанр: ТВ-Шоу
Описание:
Праздничный концерт в честь 70-летия Великой Победы. Прямая трансляция с Красной площади! Лучшие исполнители собрались на одной сцене, чтобы поздравить и поблагодарить тех, кто, не жалея жизни, шел в бой за родину. Великая Отечественная война – это неотъемлемая часть жизни и истории каждого из нас. Нет такой семьи, которую бы она не коснулась. Наши отцы, деды и прадеды сделали все для того, чтобы сегодня мы смогли жить под мирным небом. Наш долг – хранить память.
Релиз от: olegka7373
Продолжительность: 01:35:28
Качество видео: HDTV
Видеокодек: AVC
Битрейт видео: ~12.2 Мбит/с
Размер кадра: 1920 х 1080
Аудио 1: AC3 6.0, 384 Кбит/с
Аудио 2: MP2 2.0, 192 Кбит/с

Mediainfo:

Формат                                   : MPEG-TS
Размер файла                             : 8,98 Гбайт
Продолжительность                        : 1 ч. 35 м.
Режим общего битрейта                    : Переменный
Общий поток                              : 13,5 Мбит/сек
Видео
Идентификатор                            : 1603 (0x643)
Идентификатор меню                       : 80 (0x50)
Формат                                   : AVC
Формат/Информация                        : Advanced Video Codec
Профиль формата                          : High@L4
Параметр CABAC формата                   : Да
Параметр ReFrames формата                : 3 кадра
Идентификатор кодека                     : 27
Продолжительность                        : 1 ч. 35 м.
Битрейт                                  : 12,2 Мбит/сек
Ширина                                   : 1920 пикселей
Высота                                   : 1080 пикселей
Соотношение сторон                       : 16:9
Частота кадров                           : 25,000 кадров/сек
Стандарт вещания                         : Component
Цветовое пространство                    : YUV
Субдискретизация насыщенности            : 4:2:0
Битовая глубина                          : 8 бит
Тип развёртки                            : Чересстрочная
Порядок развёртки                        : Верхнее поле первое
Бит/(Пиксели*Кадры)                      : 0.236
Размер потока                            : 8,15 Гбайт (91%)
Цветовой диапазон                        : Limited
Основные цвета                           : BT.709
Характеристики трансфера                 : BT.709
Коэффициенты матрицы                     : BT.709
Аудио #1
Идентификатор                            : 2603 (0xA2B)
Идентификатор меню                       : 80 (0x50)
Формат                                   : AC-3
Формат/Информация                        : Audio Coding 3
Расширение режима                        : CM (complete main)
Параметр Endianness формата              : Big
Идентификатор кодека                     : 6
Продолжительность                        : 1 ч. 35 м.
Вид битрейта                             : Постоянный
Битрейт                                  : 384 Кбит/сек
Каналы                                   : 6 каналов
Расположение каналов                     : Front: L C R, Side: L R, LFE
Частота                                  : 48,0 КГц
Битовая глубина                          : 16 бит
Метод сжатия                             : С потерями
Размер потока                            : 262 Мбайт (3%)
Язык                                     : Russian
Аудио #2
Идентификатор                            : 2604 (0xA2C)
Идентификатор меню                       : 80 (0x50)
Формат                                   : MPEG Audio
Версия формата                           : Version 1
Профиль формата                          : Layer 2
Идентификатор кодека                     : 3
Продолжительность                        : 1 ч. 35 м.
Вид битрейта                             : Постоянный
Битрейт                                  : 192 Кбит/сек
Каналы                                   : 2 канала
Частота                                  : 48,0 КГц
Метод сжатия                             : С потерями
Размер потока                            : 131 Мбайт (1%)
Язык                                     : Russian
Скриншоты:
[Профиль] [ЛС]
Показать сообщения:    

Текущее время: Сегодня 10:44

Часовой пояс: GMT



Вы не можете начинать темы
Вы не можете отвечать на сообщения
Вы не можете редактировать свои сообщения
Вы не можете удалять свои сообщения
Вы не можете голосовать в опросах
Вы не можете прикреплять файлы к сообщениям
Вы не можете скачивать файлы