Торденшельд и Колд / Tordenskjold & Kold (2016) WEB-DL 1080p | L1

 
Автор Сообщение

достали все ®

Пол:

Стаж: 1 год 8 месяцев

Сообщений: 6558



Награды: 12 (Подробнее)

Mega Seeder 2 (Количество: 1) Mega Seeder 3 (Количество: 1) Mega Seeder 5 (Количество: 1)
Торрент-статистика

Создавать темы 06-Июн-2016 14:04

[Цитировать]

Информация о фильме
Название: Торденшельд и Колд
Оригинальное название: Tordenskjold & Kold
Год выхода: 2016
Жанр: драма, комедия
Режиссер: Генрик Рубен Генц
В ролях: Natalie Manduno, Якоб Офтебро, Давид Денсик, Джули Аньет Ванг, Юэль Спира, Мари Хаммер Бода, Бьёрн Чьелльман, Оле, Кристоффер Эртвог, Йонас Хофф Офтебро, Кеннет М. Кристенсен
О фильме: Дания, 1720 год. Заканчивается Великая Северная война. Знаменитый датско-норвежский флотоводец Петер Вессель Торденшельд сходит на берег и остаётся не у дел. Он ведёт разгульный образ жизни, берёт от жизни всё. Однажды под влиянием своего камердинера Кольда он решает всё-таки остепениться и завести семью. Но многочисленные враги, которые остались у Торденшельда даже среди соотечественников, не оставляют его в покое.

Выпущено: Дания / Anagram, Hummel & Nimbus, Nimbus Film ApS, Sirena Film
Продолжительность: 01:33:44
Озвучивание: Любительское (одноголосое) [datynet], перевод [adelstein_s]
Файл
Формат: MKV
Качество: WEB-DL 1080p
Видео: MPEG-4 AVC, 4403 kb/s, 1920x816
Аудио: Russian: AC3, 192 kb/s (2 ch) / Danish: AC3, 384 kb/s (6 ch)
Субтитры: Russian, Danish, Swedish, Norwegian

MI

Format : Matroska
Format version : Version 2
File size : 3.33 GiB
Duration : 1h 33mn
Overall bit rate : 5 080 Kbps
Encoded date : UTC 2016-06-06 12:32:58
Writing application : mkvmerge v7.8.0 ('River Man') 32bit built on Apr 3 2015 12:11:22
Writing library : libebml v1.3.1 + libmatroska v1.4.2
Video
ID : 1
Format : AVC
Format/Info : Advanced Video Codec
Format profile : High@L4
Format settings, CABAC : Yes
Format settings, ReFrames : 5 frames
Codec ID : V_MPEG4/ISO/AVC
Duration : 1h 33mn
Bit rate : 4 403 Kbps
Width : 1 920 pixels
Height : 816 pixels
Display aspect ratio : 2.35:1
Frame rate mode : Constant
Frame rate : 25.000 fps
Color space : YUV
Chroma subsampling : 4:2:0
Bit depth : 8 bits
Scan type : Progressive
Bits/(Pixel*Frame) : 0.112
Stream size : 2.88 GiB (87%)
Language : English
Default : Yes
Forced : No
Color range : Limited
Color primaries : BT.709
Transfer characteristics : BT.709
Matrix coefficients : BT.709
Audio #1
ID : 2
Format : AC-3
Format/Info : Audio Coding 3
Mode extension : CM (complete main)
Format settings, Endianness : Big
Codec ID : A_AC3
Duration : 1h 33mn
Bit rate mode : Constant
Bit rate : 192 Kbps
Channel(s) : 2 channels
Channel positions : Front: L R
Sampling rate : 48.0 KHz
Bit depth : 16 bits
Compression mode : Lossy
Stream size : 129 MiB (4%)
Language : Russian
Default : Yes
Forced : No
Audio #2
ID : 3
Format : AC-3
Format/Info : Audio Coding 3
Mode extension : CM (complete main)
Format settings, Endianness : Big
Codec ID : A_AC3
Duration : 1h 33mn
Bit rate mode : Constant
Bit rate : 384 Kbps
Channel(s) : 6 channels
Channel positions : Front: L C R, Side: L R, LFE
Sampling rate : 48.0 KHz
Bit depth : 16 bits
Compression mode : Lossy
Stream size : 257 MiB (8%)
Language : Danish
Default : No
Forced : No
Text #1
ID : 4
Format : UTF-8
Codec ID : S_TEXT/UTF8
Codec ID/Info : UTF-8 Plain Text
Language : Russian
Default : No
Forced : No
Text #2
ID : 5
Format : UTF-8
Codec ID : S_TEXT/UTF8
Codec ID/Info : UTF-8 Plain Text
Language : Danish
Default : No
Forced : No
Text #3
ID : 6
Format : UTF-8
Codec ID : S_TEXT/UTF8
Codec ID/Info : UTF-8 Plain Text
Language : Danish
Default : No
Forced : No
Text #4
ID : 7
Format : UTF-8
Codec ID : S_TEXT/UTF8
Codec ID/Info : UTF-8 Plain Text
Language : Swedish
Default : No
Forced : No
Text #5
ID : 8
Format : UTF-8
Codec ID : S_TEXT/UTF8
Codec ID/Info : UTF-8 Plain Text
Language : Norwegian
Default : No
Forced : No
Menu
00:00:00.000 : en:1
00:15:00.000 : en:2
00:30:00.000 : en:3
00:45:00.000 : en:4
01:00:00.000 : en:5
01:15:00.000 : en:6
01:29:59.000 : en:7

Скриншоты



[Профиль] [ЛС]
Кто просматривает тему:

Форум Тема Автор Размер
Фильмы 2016 года Торденшельд и Колд / Tordenskjold & Kold (2016) WEB-DLRip | L1 BOSS 1.45 GB
Показать сообщения:    

Текущее время: Сегодня 01:09

Часовой пояс: GMT



Вы не можете начинать темы
Вы не можете отвечать на сообщения
Вы не можете редактировать свои сообщения
Вы не можете удалять свои сообщения
Вы не можете голосовать в опросах
Вы не можете прикреплять файлы к сообщениям
Вы не можете скачивать файлы