Торговля кожей / Skin Traffik (2015) BDRip 720p | L

 
Автор Сообщение

BOSS ®

Пол:

Стаж: 2 года 2 месяца

Сообщений: 3751

Откуда: ODESSA



Награды: 20 (Подробнее)

Top Keeper 1 (Количество: 1) Top Releaser 2 (Количество: 1) Top Seeder 4 (Количество: 1)
Торрент-статистика

Создавать темы 17-Дек-2015 20:39

[Цитировать]

Информация о фильме
Название: Торговля кожей
Оригинальное название: Skin Traffik
Год выхода: 2015
Жанр: Боевик, криминал
Режиссер: Ара Пайая
В ролях: Гэри Дэниелс, Микки Рурк, Эрик Робертс, Дэрил Ханна, Майкл Мэдсен, Доминик Суэйн, Алан Форд, Джефф Фэйи, Челси Ли, Рон Смуренбург
О фильме: Измученный киллер пытается восстановить свою человечность в жестоком преступном мире, выживание в котором является скорее инстинктом, нежели мастерством.

Выпущено: Великобритания / Raging Pictures
Продолжительность: 01:33:23
Озвучивание: Любительское (многоголосое) [ViruseProject]
Файл
Формат: MKV
Качество: BDRip 720p
Видео: MPEG-4 AVC, 6589 kb/s, 1280x544
Аудио: Russian: AC3, 192 kb/s (2 ch) / English: AC3, 448 kb/s (6 ch)
Субтитры: отсутствуют

MI

Общее
Уникальный идентификатор : 201432005635684006916609793351579108481 (0x978A64A4E666050496EA054998D48481)
Полное имя : D:загрузкиTorgovlya.kozhey.2015.P.BDRip 720p.mkv
Формат : Matroska
Версия формата : Version 4 / Version 2
Размер файла : 4,81 Гбайт
Продолжительность : 1 ч. 33 м.
Общий поток : 7376 Кбит/сек
Дата кодирования : UTC 2015-12-17 18:21:54
Программа кодирования : mkvmerge v7.3.0 ('Nouages') 32bit built on Oct 22 2014 18:44:01
Библиотека кодирования : libebml v1.3.0 + libmatroska v1.4.1
DURATION : 01:33:23.488000000
NUMBER_OF_FRAMES : 175109
NUMBER_OF_BYTES : 313795328
_STATISTICS_WRITING_APP : mkvmerge v7.3.0 ('Nouages') 32bit built on Oct 22 2014 18:44:01
_STATISTICS_WRITING_DATE_UTC : 2015-12-17 18:21:54
_STATISTICS_TAGS : BPS DURATION NUMBER_OF_FRAMES NUMBER_OF_BYTES
Видео
Идентификатор : 1
Формат : AVC
Формат/Информация : Advanced Video Codec
Профиль формата : High@L4.1
Параметр CABAC формата : Да
Параметр ReFrames формата : 12 кадров
Идентификатор кодека : V_MPEG4/ISO/AVC
Продолжительность : 1 ч. 33 м.
Битрейт : 6589 Кбит/сек
Ширина : 1280 пикселей
Высота : 544 пикселя
Соотношение сторон : 2,35:1
Режим частоты кадров : Постоянный
Частота кадров : 25,000 кадров/сек
Цветовое пространство : YUV
Субдискретизация насыщенности : 4:2:0
Битовая глубина : 8 бит
Тип развёртки : Прогрессивная
Бит/(Пиксели*Кадры) : 0.379
Размер потока : 4,30 Гбайт (89%)
Библиотека кодирования : x264 core 142 r2409kMod d6b4e63
Настройки программы : cabac=1 / ref=12 / deblock=1:-3:-3 / analyse=0x3:0x133 / me=umh / subme=10 / psy=1 / fade_compensate=0.00 / psy_rd=1.00:0.00 / mixed_ref=1 / me_range=32 / chroma_me=1 / trellis=2 / 8x8dct=1 / cqm=0 / deadzone=21,11 / fast_pskip=0 / chroma_qp_offset=-2 / threads=6 / lookahead_threads=1 / sliced_threads=0 / nr=0 / decimate=0 / interlaced=0 / bluray_compat=0 / constrained_intra=0 / fgo=0 / bframes=8 / b_pyramid=2 / b_adapt=2 / b_bias=0 / direct=3 / weightb=1 / open_gop=0 / weightp=2 / keyint=250 / keyint_min=24 / scenecut=40 / intra_refresh=0 / rc=crf / mbtree=0 / crf=14.0000 / qcomp=0.60 / qpmin=0 / qpmax=69 / qpstep=4 / ip_ratio=1.30 / pb_ratio=1.20 / aq=3:0.85
Язык : English
Default : Да
Forced : Нет
DURATION : 01:33:23.400000000
NUMBER_OF_FRAMES : 140085
NUMBER_OF_BYTES : 4716457506
_STATISTICS_WRITING_APP : mkvmerge v7.3.0 ('Nouages') 32bit built on Oct 22 2014 18:44:01
_STATISTICS_WRITING_DATE_UTC : 2015-12-17 18:21:54
_STATISTICS_TAGS : BPS DURATION NUMBER_OF_FRAMES NUMBER_OF_BYTES
Коэффициенты матрицы : BT.709
Аудио #1
Идентификатор : 2
Формат : AC-3
Формат/Информация : Audio Coding 3
Расширение режима : CM (complete main)
Параметр Endianness формата : Big
Идентификатор кодека : A_AC3
Продолжительность : 1 ч. 33 м.
Вид битрейта : Постоянный
Битрейт : 192 Кбит/сек
Каналы : 2 канала
Расположение каналов : Front: L R
Частота : 48,0 КГц
Битовая глубина : 16 бит
Метод сжатия : С потерями
Размер потока : 128 Мбайт (3%)
Язык : Russian
Default : Да
Forced : Нет
Аудио #2
Идентификатор : 3
Формат : AC-3
Формат/Информация : Audio Coding 3
Расширение режима : CM (complete main)
Параметр Endianness формата : Big
Идентификатор кодека : A_AC3
Продолжительность : 1 ч. 33 м.
Вид битрейта : Постоянный
Битрейт : 448 Кбит/сек
Каналы : 6 каналов
Расположение каналов : Front: L C R, Side: L R, LFE
Частота : 48,0 КГц
Битовая глубина : 16 бит
Метод сжатия : С потерями
Размер потока : 299 Мбайт (6%)
Язык : English
Default : Нет
Forced : Нет

Скриншоты



[Профиль] [ЛС]
Показать сообщения:    

Текущее время: Сегодня 12:11

Часовой пояс: GMT



Вы не можете начинать темы
Вы не можете отвечать на сообщения
Вы не можете редактировать свои сообщения
Вы не можете удалять свои сообщения
Вы не можете голосовать в опросах
Вы не можете прикреплять файлы к сообщениям
Вы не можете скачивать файлы