Топ-5 / Top Five (2014) BDRip 1080p | Лицензия

 
Автор Сообщение

достали все ®

Пол:

Стаж: 1 год 8 месяцев

Сообщений: 6536



Награды: 12 (Подробнее)

Mega Seeder 5 (Количество: 1) Top Releaser 3 (Количество: 1) Mega Seeder 1 (Количество: 1)
Торрент-статистика

Создавать темы 03-Май-2015 15:24

[Цитировать]

Информация о фильме
Название: Пятёрка лидеров (Топ-5)
Оригинальное название: Top Five
Год выпуска: 2014
Жанр: Комедия
Выпущено: США, IAC Films
Режиссер: Крис Рок
В ролях: Крис Рок, Розарио Доусон, Дж.Б. Смув, Гэбриэл Юнион, Романи Малко, Андерс Холм, Седрик-развлекатель, Карли Льюис, Кевин Барнетт, Хейли Норман
О фильме: История о комедийном актере, который пытается перестать шутить и начать вести себя как серьезный актер, когда его невеста, звезда реалити-шоу, уговаривает его устроить трансляцию их свадьбы на ее шоу…
Файл
Качество: BDRip (1080p)
Видео: MPEG-4 AVC, 12600 Кбит/с, 1920x800
Аудио: Русский (AC3, 6 ch, 640 Кбит/с), английский (DTS, 6 ch, 1510 Кбит/с), (AC3, 2 ch, 224 Кбит/с)
Размер: 10.89 ГБ
Продолжительность: 01:41:59
Перевод: Дублированный [лицензия]
Субтитры: Русские, английские, румынские

MI

Top.Five.2014.1080p.BluRay.x264.Rus.2xEng.Subs-VietHD
Format : Matroska
Format version : Version 4 / Version 2
File size : 10.9 GiB
Duration : 1h 41mn
Overall bit rate : 15.3 Mbps
Movie name : released by aldershot
Encoded date : UTC 2015-05-03 11:20:52
Writing application : mkvmerge v6.9.1 ('Blue Panther')
Writing library : libebml v1.3.0 + libmatroska v1.4.1
Attachment : Yes
Video
ID : 1
Format : AVC
Format/Info : Advanced Video Codec
Format profile : High@L4.1
Format settings, CABAC : Yes
Format settings, ReFrames : 5 frames
Codec ID : V_MPEG4/ISO/AVC
Duration : 1h 41mn
Bit rate : 12.6 Mbps
Width : 1 920 pixels
Height : 800 pixels
Display aspect ratio : 2.40:1
Frame rate mode : Constant
Frame rate : 23.976 fps
Color space : YUV
Chroma subsampling : 4:2:0
Bit depth : 8 bits
Scan type : Progressive
Bits/(Pixel*Frame) : 0.342
Stream size : 8.98 GiB (82%)
Title : VietHD
Writing library : x264 core 146 r2538kMod 121396c
Encoding settings : cabac=1 / ref=5 / deblock=1:-3:-3 / analyse=0x3:0x133 / me=umh /
subme=10 / psy=1 / fade_compensate=0.00 / psy_rd=1.08:0.00 / mixed_ref=1 / me_range=24 /
chroma_me=1 / trellis=2 / 8x8dct=1 / cqm=0 / deadzone=21,11 / fast_pskip=1 / chroma_qp_offset=-2 /
threads=24 / lookahead_threads=6 / sliced_threads=0 / nr=0 / decimate=1 / interlaced=0 /
bluray_compat=0 / constrained_intra=0 / fgo=0 / bframes=11 / b_pyramid=2 / b_adapt=2 / b_bias=0 /
direct=3 / weightb=1 / open_gop=0 / weightp=2 / keyint=250 / keyint_min=23 / scenecut=40 /
intra_refresh=0 / rc=crf / mbtree=0 / crf=18.3000 / qcomp=0.65 / qpmin=0 / qpmax=69 / qpstep=4 /
ip_ratio=1.30 / pb_ratio=1.20 / aq=3:0.68
Language : English
Default : Yes
Forced : No
Matrix coefficients : BT.709
Audio #1
ID : 2
Format : AC-3
Format/Info : Audio Coding 3
Mode extension : CM (complete main)
Format settings, Endianness : Big
Codec ID : A_AC3
Duration : 1h 41mn
Bit rate mode : Constant
Bit rate : 640 Kbps
Channel(s) : 6 channels
Channel positions : Front: L C R, Side: L R, LFE
Sampling rate : 48.0 KHz
Bit depth : 16 bits
Compression mode : Lossy
Stream size : 467 MiB (4%)
Title : AC3 5.1 @ 640 Kbps, Дубляж, Blu-Ray CEE
Language : Russian
Default : Yes
Forced : No
Audio #2
ID : 3
Format : DTS
Format/Info : Digital Theater Systems
Mode : 16
Format settings, Endianness : Big
Codec ID : A_DTS
Duration : 1h 41mn
Bit rate mode : Constant
Bit rate : 1 509 Kbps
Channel(s) : 6 channels
Channel positions : Front: L C R, Side: L R, LFE
Sampling rate : 48.0 KHz
Bit depth : 24 bits
Compression mode : Lossy
Stream size : 1.07 GiB (10%)
Title : DTS 5.1 @ 1536 Kbps, Original
Language : English
Default : No
Forced : No
Audio #3
ID : 4
Format : AC-3
Format/Info : Audio Coding 3
Mode extension : CM (complete main)
Format settings, Endianness : Big
Codec ID : A_AC3
Duration : 1h 41mn
Bit rate mode : Constant
Bit rate : 224 Kbps
Channel(s) : 2 channels
Channel positions : Front: L R
Sampling rate : 48.0 KHz
Bit depth : 16 bits
Compression mode : Lossy
Stream size : 163 MiB (1%)
Title : AC3 2.0 @ 224 Kbps, Commentary Chris Rock and Actor JB Smoove
Language : English
Default : No
Forced : No
Text #1
ID : 5
Format : UTF-8
Codec ID : S_TEXT/UTF8
Codec ID/Info : UTF-8 Plain Text
Title : full
Language : Romanian
Default : No
Forced : No
Text #2
ID : 6
Format : UTF-8
Codec ID : S_TEXT/UTF8
Codec ID/Info : UTF-8 Plain Text
Title : full, Blu-Ray CEE
Language : Russian
Default : No
Forced : No
Text #3
ID : 7
Format : UTF-8
Codec ID : S_TEXT/UTF8
Codec ID/Info : UTF-8 Plain Text
Title : forced
Language : English
Default : No
Forced : No
Text #4
ID : 8
Format : UTF-8
Codec ID : S_TEXT/UTF8
Codec ID/Info : UTF-8 Plain Text
Title : full
Language : English
Default : No
Forced : No
Text #5
ID : 9
Format : UTF-8
Codec ID : S_TEXT/UTF8
Codec ID/Info : UTF-8 Plain Text
Title : SDH
Language : English
Default : No
Forced : No
Menu
00:00:00.000 : en:00:00:00.000
00:08:49.654 : en:00:08:49.654
00:17:21.582 : en:00:17:21.582
00:27:48.834 : en:00:27:48.834
00:33:47.776 : en:00:33:47.776
00:44:03.808 : en:00:44:03.808
00:52:44.328 : en:00:52:44.328
00:59:28.440 : en:00:59:28.440
01:08:49.459 : en:01:08:49.459
01:17:13.838 : en:01:17:13.838
01:23:02.769 : en:01:23:02.769
01:28:59.543 : en:01:28:59.543
01:33:42.075 : en:01:33:42.075

Скриншоты



[Профиль] [ЛС]
Показать сообщения:    

Текущее время: Сегодня 06:29

Часовой пояс: GMT



Вы не можете начинать темы
Вы не можете отвечать на сообщения
Вы не можете редактировать свои сообщения
Вы не можете удалять свои сообщения
Вы не можете голосовать в опросах
Вы не можете прикреплять файлы к сообщениям
Вы не можете скачивать файлы