Топ-модель / The Model (2016) BDRemux 1080p | P

 
Автор Сообщение

достали все ®

Пол:

Стаж: 1 год 8 месяцев

Сообщений: 6527



Награды: 12 (Подробнее)

Top Releaser 4 (Количество: 1) Top Releaser 2 (Количество: 1) За внесенный вклад в развитие сайта (Количество: 1)
Торрент-статистика

Создавать темы 16-Авг-2016 18:26

[Цитировать]

Информация о фильме
Название: Топ-модель
Оригинальное название: The Model
Год выхода: 2016
Жанр: Мелодрама
Режиссер: Мадс Маттисен
В ролях: Мария Палм, Эд Скрейн, Ивонник Мюллер, Кристиан Абарт, Доминик Оллбёрн, Вёрджил Брэмли, Алексия Шико, Тьерри Анкиссе, Марко Ильсё, Леонардо Лакария
О фильме:
Когда начинающая модель из глубинки Эмма получает приглашение в одно из ведущих модных агентств, она, ни секунды не сомневаясь, отправляется навстречу своей мечте в Париж. На одной из фотосессий она встречает успешного и привлекательного фотографа Шейна Уайта в которого влюбляется. Однако мир моды диктует свои условия и то, что поначалу складывалось для нее как сказка, начинает постепенно перерастать в опасную одержимость и настоящий ночной кошмар.

Страна: Дания
Студия: Film i Väst, Zentropa Entertainments
Продолжительность: 01:39:43
Перевод: Профессиональный многоголосый (закадровый)
Файл
Кодек: MPEG-4
Качество: BDRemux 1080p
Видео: 1920x1080, 19.8 Mbit/s, 24.000 fps
Звук:
Аудио #01: 48 kHz, AC3, 2.0, 384 Kbps | Профессиональный многоголосый (закадровый) |
Аудио #02: 48 kHz, DTS-HD MA, 5.1, 1920 kbps | Оригинал |

MI

General
Unique ID : 232729710603360997552875076217518675987 (0xAF161CA2DAB1028B817F17744D57D813)
Complete name : G:VideoThe.Model.2016.BDREMUX.1080p.ExKinoRay.mkv
Format : Matroska
Format version : Version 4 / Version 2
File size : 16.7 GiB
Duration : 1h 48mn
Overall bit rate mode : Variable
Overall bit rate : 22.1 Mbps
Movie name : The.Model.2016.BDREMUX.1080p.ExKinoRay
Encoded date : UTC 2016-08-16 15:23:23
Writing application : mkvmerge v8.3.0 ('Over the Horizon') 64bit
Writing library : libebml v1.3.1 + libmatroska v1.4.2
Video
ID : 1
Format : AVC
Format/Info : Advanced Video Codec
Format profile : High@L4.1
Format settings, CABAC : Yes
Format settings, ReFrames : 2 frames
Format settings, GOP : M=1, N=5
Codec ID : V_MPEG4/ISO/AVC
Duration : 1h 48mn
Bit rate mode : Variable
Bit rate : 19.8 Mbps
Maximum bit rate : 34.2 Mbps
Width : 1 920 pixels
Height : 1 080 pixels
Display aspect ratio : 16:9
Frame rate mode : Constant
Frame rate : 24.000 fps
Color space : YUV
Chroma subsampling : 4:2:0
Bit depth : 8 bits
Scan type : Progressive
Bits/(Pixel*Frame) : 0.398
Stream size : 15.0 GiB (90%)
Language : English
Default : Yes
Forced : No
Audio #1
ID : 2
Format : AC-3
Format/Info : Audio Coding 3
Mode extension : CM (complete main)
Format settings, Endianness : Big
Codec ID : A_AC3
Duration : 1h 47mn
Bit rate mode : Constant
Bit rate : 384 Kbps
Channel(s) : 2 channels
Channel positions : Front: L R
Sampling rate : 48.0 KHz
Frame rate : 31.250 fps (1536 spf)
Compression mode : Lossy
Delay relative to video : 1s 0ms
Stream size : 296 MiB (2%)
Language : Russian
Default : Yes
Forced : No
Audio #2
ID : 3
Format : DTS
Format/Info : Digital Theater Systems
Format profile : MA / Core
Mode : 16
Format settings, Endianness : Big
Codec ID : A_DTS
Duration : 1h 48mn
Bit rate mode : Variable / Constant
Bit rate : 1 920 Kbps / 1 509 Kbps
Channel(s) : 6 channels
Channel positions : Front: L C R, Side: L R, LFE
Sampling rate : 48.0 KHz
Frame rate : 93.750 fps (512 spf)
Bit depth : 16 bits
Compression mode : Lossless / Lossy
Stream size : 1.44 GiB (9%)
Language : English
Default : No
Forced : No
Menu
00:00:00.000 : en:00:00:00.000
00:03:12.526 : en:00:03:12.526
00:08:50.822 : en:00:08:50.822
00:14:23.112 : en:00:14:23.112
00:17:40.059 : en:00:17:40.059
00:21:49.892 : en:00:21:49.892
00:26:15.783 : en:00:26:15.783
00:31:23.340 : en:00:31:23.340
00:36:22.847 : en:00:36:22.847
00:41:23.940 : en:00:41:23.940
00:46:11.185 : en:00:46:11.185
00:49:30.342 : en:00:49:30.342
00:53:28.247 : en:00:53:28.247
00:57:00.459 : en:00:57:00.459
01:01:44.743 : en:01:01:44.743
01:07:42.767 : en:01:07:42.767
01:11:16.731 : en:01:11:16.731
01:18:47.473 : en:01:18:47.473
01:23:20.120 : en:01:23:20.120
01:27:53.810 : en:01:27:53.810

Скриншоты

Автор релиза:
[Профиль] [ЛС]
Кто просматривает тему:

Показать сообщения:    

Текущее время: Сегодня 22:08

Часовой пояс: GMT



Вы не можете начинать темы
Вы не можете отвечать на сообщения
Вы не можете редактировать свои сообщения
Вы не можете удалять свои сообщения
Вы не можете голосовать в опросах
Вы не можете прикреплять файлы к сообщениям
Вы не можете скачивать файлы