Топ Гир Спецвыпуск в Бирме (Специальная Расширенная Версия) / Top Gear The Burma Special (Special Extended Edition) [2014, Великобритания, Авто-шоу, BDRemux 1080i] 4xMVO, Original Eng + Sub (Rus, Eng)

 
Автор Сообщение

sergej644 ®

Пол:

Стаж: 4 года 11 месяцев

Сообщений: 6041

Откуда: Soviet Union



Награды: Нет

Торрент-статистика

Создавать темы 20-Янв-2015 01:35

[Цитировать]

Топ Гир: Спецвыпуск в Бирме
Top Gear: The Burma Special
Специальная Расширенная Версия (Special Extended Edition)
Страна: Великобритания
Режиссер: Kit Lynch-Robinson
Жанр: Авто-шоу
Дата выпуска: 2014
Продолжительность: 02:15:19-Перевод-аудио:
1. Профессиональный многоголосый закадровый AlexFilm, 20142. Любительский многоголосый закадровый Jetvis Studio & RG.paravozik, 20143. Любительский многоголосый закадровый Gears Media, 20144. Любительский многоголосый закадровый IdeaFilm, 2014
Перевод-субтитры:
1. Notabenoid, 2014
Дополнительная информация:
Прописаны оригинальные чаптеры.Аудиодорожки № 1, 2, 3, 4 неполные, отсутствует около 15-и минут перевода. На непереведенные места сделаны форсированные субтитры. Перевод мой.Субтитры с Notabenoid'a неполные, отсутствует около 15-и минут перевода. Дополнены моим переводом.-Описание: В увлекательном и полном приключений путешествии Ричард Хаммонд, Джереми Кларксон и Джеймс Мэй отправятся в Бирму для того, чтобы взяться за сооружение моста через реку Квай.
Семпл
Качество видео: BDRemux 1080i (thx BitHQ.org)
Формат видео: MKV
Видео: 1920x1080 | 16:9 | 25 fps | MPEG-4 AVC | 34.997 Mbps | 0.626 bit/pixel
Аудио 1: AC-3 | 48.0 KHz | 2/0 (L,R) ch | 16 bits | 192 kbps | RUS
Аудио 2: AC-3 | 48.0 KHz | 2/0 (L,R) ch | 16 bits | 192 kbps | RUS
Аудио 3: AC-3 | 48.0 KHz | 2/0 (L,R) ch | 16 bits | 192 kbps | RUS
Аудио 4: AC-3 | 48.0 KHz | 2/0 (L,R) ch | 16 bits | 192 kbps | RUS
Аудио 5: DTS-HD MA | 48.0 KHz | 2/0 (L,R) ch | 24 bits | 2111 kbps | ENG
Субтитры 1: SRT | UTF-8 | RUS
Субтитры 2: SRT | UTF-8 | RUS
Субтитры 3: SRT | UTF-8 | ENG-

Подробные технические характеристики

General
Unique ID : 190832516735570744996911010857182510892 (0x8F91017E5CAD5064A9585C1214F33F2C)
Complete name : E:\РАЗДАЧА\2014 Top Gear The Burma Special BDRemux 1080i [4xMVO] {rus sub}.mkv
Format : Matroska
Format version : Version 4 / Version 2
File size : 35.7 GiB
Duration : 2h 15mn
Overall bit rate mode : Variable
Overall bit rate : 37.7 Mbps
Movie name : 2014 - Top Gear: The Burma Special
Encoded date : UTC 2015-01-19 22:44:41
Writing application : mkvmerge v7.5.0 ('Glass Culture') 64bit built on Jan 4 2015 16:48:44
Writing library : libebml v1.3.1 + libmatroska v1.4.2
Attachements : cover.jpg
DURATION : 02:13:52.121000000
NUMBER_OF_FRAMES : 2213
NUMBER_OF_BYTES : 85079
_STATISTICS_WRITING_APP : mkvmerge v7.5.0 ('Glass Culture') 64bit built on Jan 4 2015 16:48:44
_STATISTICS_WRITING_DATE_UT : 2015-01-19 22:44:41
_STATISTICS_TAGS : BPS DURATION NUMBER_OF_FRAMES NUMBER_OF_BYTES
Video
ID : 1
Format : AVC
Format/Info : Advanced Video Codec
Format profile : High@L4.1
Format settings, CABAC : Yes
Format settings, ReFrames : 4 frames
Codec ID : V_MPEG4/ISO/AVC
Duration : 2h 15mn
Bit rate mode : Variable
Maximum bit rate : 39.5 Mbps
Width : 1 920 pixels
Height : 1 080 pixels
Display aspect ratio : 16:9
Frame rate mode : Constant
Frame rate : 25.000 fps
Color space : YUV
Chroma subsampling : 4:2:0
Bit depth : 8 bits
Scan type : MBAFF
Scan order : Top Field First
Language : English
Default : Yes
Forced : No
DURATION : 02:15:19.000000000
NUMBER_OF_FRAMES : 202975
NUMBER_OF_BYTES : 35381862291
_STATISTICS_WRITING_APP : mkvmerge v7.5.0 ('Glass Culture') 64bit built on Jan 4 2015 16:48:44
_STATISTICS_WRITING_DATE_UT : 2015-01-19 22:44:41
_STATISTICS_TAGS : BPS DURATION NUMBER_OF_FRAMES NUMBER_OF_BYTES
Audio #1
ID : 2
Format : AC-3
Format/Info : Audio Coding 3
Format profile : Dolby Digital
Mode extension : CM (complete main)
Format settings, Endianness : Big
Codec ID : A_AC3
Duration : 2h 15mn
Bit rate mode : Constant
Bit rate : 192 Kbps
Channel(s) : 2 channels
Channel positions : Front: L R
Sampling rate : 48.0 KHz
Bit depth : 16 bits
Compression mode : Lossy
Stream size : 186 MiB (1%)
Title : MVO "AlexFilm"
Language : Russian
Default : Yes
Forced : No
DURATION : 02:15:19.008000000
NUMBER_OF_FRAMES : 253719
NUMBER_OF_BYTES : 194856192
_STATISTICS_WRITING_APP : mkvmerge v7.5.0 ('Glass Culture') 64bit built on Jan 4 2015 16:48:44
_STATISTICS_WRITING_DATE_UT : 2015-01-19 22:44:41
_STATISTICS_TAGS : BPS DURATION NUMBER_OF_FRAMES NUMBER_OF_BYTES
Audio #2
ID : 3
Format : AC-3
Format/Info : Audio Coding 3
Mode extension : CM (complete main)
Format settings, Endianness : Big
Codec ID : A_AC3
Duration : 2h 15mn
Bit rate mode : Constant
Bit rate : 192 Kbps
Channel(s) : 2 channels
Channel positions : Front: L R
Sampling rate : 48.0 KHz
Bit depth : 16 bits
Compression mode : Lossy
Stream size : 186 MiB (1%)
Title : MVO "Jetvis Studio" & "RG.paravozik"
Language : Russian
Default : No
Forced : No
DURATION : 02:15:19.008000000
NUMBER_OF_FRAMES : 761157
NUMBER_OF_BYTES : 2142350820
_STATISTICS_WRITING_APP : mkvmerge v7.5.0 ('Glass Culture') 64bit built on Jan 4 2015 16:48:44
_STATISTICS_WRITING_DATE_UT : 2015-01-19 22:44:41
_STATISTICS_TAGS : BPS DURATION NUMBER_OF_FRAMES NUMBER_OF_BYTES
Audio #3
ID : 4
Format : AC-3
Format/Info : Audio Coding 3
Mode extension : CM (complete main)
Format settings, Endianness : Big
Codec ID : A_AC3
Duration : 2h 15mn
Bit rate mode : Constant
Bit rate : 192 Kbps
Channel(s) : 2 channels
Channel positions : Front: L R
Sampling rate : 48.0 KHz
Bit depth : 16 bits
Compression mode : Lossy
Stream size : 186 MiB (1%)
Title : MVO "Gears Media"
Language : Russian
Default : No
Forced : No
Audio #4
ID : 5
Format : AC-3
Format/Info : Audio Coding 3
Mode extension : CM (complete main)
Format settings, Endianness : Big
Codec ID : A_AC3
Duration : 2h 15mn
Bit rate mode : Constant
Bit rate : 192 Kbps
Channel(s) : 2 channels
Channel positions : Front: L R
Sampling rate : 48.0 KHz
Bit depth : 16 bits
Compression mode : Lossy
Stream size : 186 MiB (1%)
Title : MVO "IdeaFilm"
Language : Russian
Default : No
Forced : No
Audio #5
ID : 6
Format : DTS
Format/Info : Digital Theater Systems
Format profile : MA / Core
Mode : 16
Format settings, Endianness : Big
Codec ID : A_DTS
Duration : 2h 15mn
Bit rate mode : Variable
Bit rate : Unknown / 1 509 Kbps
Channel(s) : 2 channels
Channel positions : Front: L R
Sampling rate : 48.0 KHz
Bit depth : 24 bits
Compression mode : Lossless / Lossy
Language : English
Default : No
Forced : No
Text #1
ID : 7
Format : UTF-8
Codec ID : S_TEXT/UTF8
Codec ID/Info : UTF-8 Plain Text
Title : Forced by yaroslav230596
Language : Russian
Default : Yes
Forced : No
Text #2
ID : 8
Format : UTF-8
Codec ID : S_TEXT/UTF8
Codec ID/Info : UTF-8 Plain Text
Title : Full "Notabenoid"
Language : Russian
Default : No
Forced : No
Text #3
ID : 9
Format : UTF-8
Codec ID : S_TEXT/UTF8
Codec ID/Info : UTF-8 Plain Text
Language : English
Default : No
Forced : No
Menu
00:00:00.000 : en:Chapter 01
00:12:51.120 : en:Chapter 02
00:22:00.480 : en:Chapter 03
00:40:46.280 : en:Chapter 04
00:58:19.080 : en:Chapter 05
01:12:49.520 : en:Chapter 06
01:22:39.920 : en:Chapter 07
01:35:44.920 : en:Chapter 08
01:46:08.600 : en:Chapter 09
01:59:39.360 : en:Chapter 10
--
[Профиль] [ЛС]
Кто просматривает тему:

Показать сообщения:    

Текущее время: Сегодня 20:58

Часовой пояс: GMT



Вы не можете начинать темы
Вы не можете отвечать на сообщения
Вы не можете редактировать свои сообщения
Вы не можете удалять свои сообщения
Вы не можете голосовать в опросах
Вы не можете прикреплять файлы к сообщениям
Вы не можете скачивать файлы