Тони-золотоискатель / Toni Goldwascher (Норберт Лечнер / Norbert Lechner) [2007, Германия, Семейный, DVDRip] VO + Sub Rus + Original Ger

 
Автор Сообщение

painkiller ®

Стаж: 2 года 3 месяца

Сообщений: 582



Награды: Нет

Торрент-статистика

Создавать темы 14-Авг-2014 13:01

[Цитировать]

Тони-золотоискатель / Toni Goldwascher
Страна: Германия
Жанр: Семейный
Год выпуска: 2007
Продолжительность: 01:24:45
Перевод: Одноголосый закадровый
Cубтитры: русские, немецкие
Оригинальная аудиодорожка: немецкий
Режиссер: Норберт Лечнер / Norbert Lechner
В ролях: Лоренц Штрассер / Lorenz Strasser, Флориан Шлегль / Florian Schlegl, Луис Хубер / Luis Huber, Леопольд Хорнанг / Leopold Hornung, Мария Брендель / Maria Brendel
Описание: 1952 год, в небольшой деревеньке на берегу реки Инн живет мальчик Тони одиннадцати лет по прозвищу Тони-золотоискатель, живет вместе со своей матерью и собакой по кличке Страпп. Дед Тони когда-то намывал здесь золото, его рвение разбогатеть вызывало неприязнь у местных жителей. С тех пор дом, где он жил, словно бельмо в глазу в этой деревни. Тони стал изгоем не по своей вине, сын местного фермера Ганс преследует Тони, чтобы оспорить золотую бухту на реке, именно то место где дед Тони намывал золото. Двое детей из приюта, эпилептик Герберт и немая Элфи поддерживают Тони. Герр капеллан, временно отвечает за деревенскую общину и именно в нем Тони хочет видеть своего союзника, на его счастье герр капеллан становится таковым, но конфликт разгорается, когда Тони все-таки находит золото в заливе. С глазами полные зависти Ганс и его банда рыщут в поисках золота, но вопреки ожиданиям находят старый карабин и боеприпасы времен Второй мировой войны. Теперь Ганс уверовал в свою силу и решил, во что бы то ни стало отомстить Тони...
Сэмпл: http://multi-up.com/969092
Качество видео: DVDRip
Формат видео: AVI
Видео: 640x352 (1.82:1), 25 fps, XviD build 46 ~1012 kbps avg, 0.18 bit/pixel
Аудио 1: 48 kHz, MPEG Layer 3, 2 ch, ~128.00 kbps avg(Русский)
Аудио 2: 48 kHz, MPEG Layer 3, 2 ch, ~128.00 kbps avg(Немецкий)
Формат субтитров: softsub (SRT)
Доп. информация о субтитрах: Русские внешние (scouttravel), немецкие

MediaInfo

Общее
Полное имя : F:\С моей озвучкой\Тони-золотоискатель\Toni Goldwascher.avi
Формат : AVI
Формат/Информация : Audio Video Interleave
Размер файла : 780 Мбайт
Продолжительность : 1 ч. 24 м.
Режим общего битрейта : Переменный
Общий поток : 1287 Кбит/сек
Программа кодирования : VirtualDubModRus 1.5.10.2 (build 2542/release)
Библиотека кодирования : VirtualDubMod build 2542/release
Видео
Идентификатор : 0
Формат : MPEG-4 Visual
Профиль формата : Advanced Simple@L5
Параметр BVOP формата : 2
Параметр QPel формата : Нет
Параметр GMC формата : Без точки перехода
Параметр матрицы формата : Default (H.263)
Идентификатор кодека : XVID
Идентификатор кодека/Подсказка : XviD
Продолжительность : 1 ч. 24 м.
Битрейт : 1014 Кбит/сек
Ширина : 640 пикселей
Высота : 352 пикселя
Соотношение сторон : 16:9
Частота кадров : 25,000 кадров/сек
Цветовое пространство : YUV
Субдискретизация насыщенности : 4:2:0
Битовая глубина : 8 бит
Тип развёртки : Прогрессивная
Метод сжатия : С потерями
Бит/(Пиксели*Кадры) : 0.180
Размер потока : 614 Мбайт (79%)
Библиотека кодирования : XviD 1.1.2 (UTC 2006-11-01)
Аудио #1
Идентификатор : 1
Формат : MPEG Audio
Версия формата : Version 1
Профиль формата : Layer 3
Режим : Joint stereo
Расширение режима : MS Stereo
Идентификатор кодека : 55
Идентификатор кодека/Подсказка : MP3
Продолжительность : 1 ч. 24 м.
Вид битрейта : Постоянный
Битрейт : 128 Кбит/сек
Каналы : 2 канала
Частота : 48,0 КГц
Метод сжатия : С потерями
Размер потока : 77,6 Мбайт (10%)
Выравнивание : Соединение по промежуткам
Продолжительность промежутка : 40 мс. (1,00 видеокадр)
Время предзагрузки промежутка : 504 мс.
Библиотека кодирования : LAME3.98
Аудио #2
Идентификатор : 2
Формат : MPEG Audio
Версия формата : Version 1
Профиль формата : Layer 3
Режим : Joint stereo
Расширение режима : MS Stereo
Идентификатор кодека : 55
Идентификатор кодека/Подсказка : MP3
Продолжительность : 1 ч. 24 м.
Вид битрейта : Переменный
Битрейт : 128 Кбит/сек
Номинальный битрейт : 135 Кбит/сек
Каналы : 2 канала
Частота : 48,0 КГц
Метод сжатия : С потерями
Размер потока : 77,4 Мбайт (10%)
Выравнивание : Соединение по промежуткам
Продолжительность промежутка : 24 мс. (0,60 видеокадр)
Время предзагрузки промежутка : 478 мс.
Библиотека кодирования : LAME3.97b
Настройки программы : -m j -V 4 -q 3 -lowpass 17 --abr 135

Скриншоты

[Профиль] [ЛС]

Создавать темы 06-Авг-2015 23:14 (спустя 11 месяцев 23 дня)

Топик был перенесен из форума Фильмы до 2014 года в форум Фильмы до 2012 года
sergej644
 
Кто просматривает тему:

Показать сообщения:    

Текущее время: Сегодня 20:35

Часовой пояс: GMT



Вы не можете начинать темы
Вы не можете отвечать на сообщения
Вы не можете редактировать свои сообщения
Вы не можете удалять свои сообщения
Вы не можете голосовать в опросах
Вы не можете прикреплять файлы к сообщениям
Вы не можете скачивать файлы