Том и Джерри: Шпионские Игры / Tom and Jerry: Spy Quest (Спайк Брандт, Тони Червоне)[2015, Приключения, Комедия, WEB-DL] H.264/1080p

 
Автор Сообщение

sergej644 ®

Пол:

Стаж: 4 года 11 месяцев

Сообщений: 6041

Откуда: Soviet Union



Награды: Нет

Торрент-статистика

Создавать темы 03-Июл-2015 17:46

[Цитировать]

-Том и Джерри: Шпионские Игры / Tom and Jerry: Spy Quest (2015) WEB-DL [H.264/1080p]- Производство: США / Warner Bros. Animation
Жанр: Приключения, Комедия
Режиссер: Спайк Брандт, Тони Червоне
Описание:
Динамичный полнометражный мультфильм, в котором объединяются герои двух мультсериалов – беспокойная парочка Том и Джерри и любознательный мальчик Джонни Квест и его команда. Погожим летним деньком на пляж приходят Том и Джерри, чтобы позагорать и насладиться морским бризом. Но, похоже, и в этом райском уголке им не найти общий язык. Начинается традиционная для Тома и Джерри заварушка, в которой каждый стремится морально (и не только) уничтожить другого. Заканчивается дело тем, что маленький, но хитрый мышонок Джерри натравливает на Тома собаку, и в итоге кот оказывается на пальме. Пес по кличке Бандит принадлежит парню по имени Джонни Квест, сыну знаменитого ученого, и его приятелю индусу Хаджи. Во время встречи Тома, Джерри, Джонни и Хаджи в небе появляются летающие роботы, которые начинают преследовать ребят. Прихватив кота, мышь и бульдога, парни пытаются убежать от погони. Спасает их Рейс, личный телохранитель семьи Квестов. Кто и зачем хочет добраться до Джонни? Для того чтобы узнать это, рекомендуем смотреть онлайн «Том и Джерри: Шпионские игры».
Продолжительность: 01:12:53
Качество видео: WEB-DL 1080p
Перевод: Профессиональный многоголосый, закадровый (iTunes)
Видео: AVC/H.264, 1912x1072, ~5166 Кбит/сек
Аудио#1: AC3, 6 ch, 384 Кбит/сек - Профессиональный многоголосый, закадровый (iTunes)
Аудио#2: AC3, 6 ch, 384 Кбит/сек - Оригинальная звуковая дорожка (ENG)

Mediainfo:

Общее
Уникальный идентификатор                 : 232729452878887986324353692771904031167 (0xAF160FEDEA018DFAB84F6CFE92C689BF)
Формат                                   : Matroska
Версия формата                           : Version 2
Размер файла                             : 3,08 Гбайт
Продолжительность                        : 1 ч. 12 м.
Общий поток                              : 6054 Кбит/сек
Дата кодирования                         : UTC 2015-07-02 20:24:51
Программа кодирования                    : mkvmerge v3.4.0 ('Rapunzel') сборка от May 15 2010 09:38:20
Библиотека кодирования                   : libebml v0.8.0 + libmatroska v0.9.0
Видео
Идентификатор                            : 2
Формат                                   : AVC
Формат/Информация                        : Advanced Video Codec
Профиль формата                          : High@L4
Параметр CABAC формата                   : Да
Параметр ReFrames формата                : 4 кадра
Идентификатор кодека                     : V_MPEG4/ISO/AVC
Продолжительность                        : 1 ч. 12 м.
Битрейт                                  : 5166 Кбит/сек
Ширина                                   : 1912 пикселей
Высота                                   : 1072 пикселя
Соотношение сторон                       : 16:9
Режим частоты кадров                     : Постоянный
Частота кадров                           : 23,976 кадра/сек
Цветовое пространство                    : YUV
Субдискретизация насыщенности            : 4:2:0
Битовая глубина                          : 8 бит
Тип развёртки                            : Прогрессивная
Бит/(Пиксели*Кадры)                      : 0.105
Размер потока                            : 2,63 Гбайт (85%)
Язык                                     : English
Аудио #1
Идентификатор                            : 1
Формат                                   : AC-3
Формат/Информация                        : Audio Coding 3
Расширение режима                        : CM (complete main)
Параметр Endianness формата              : Big
Идентификатор кодека                     : A_AC3
Продолжительность                        : 1 ч. 12 м.
Вид битрейта                             : Постоянный
Битрейт                                  : 384 Кбит/сек
Каналы                                   : 6 каналов
Расположение каналов                     : Front: L C R, Side: L R, LFE
Частота                                  : 48,0 КГц
Метод сжатия                             : С потерями
Размер потока                            : 200 Мбайт (6%)
Заголовок                                : Русский: AC3, 384 Kb/s (6 ch)
Язык                                     : Russian
Default                                  : Да
Forced                                   : Да
Аудио #2
Идентификатор                            : 3
Формат                                   : AC-3
Формат/Информация                        : Audio Coding 3
Расширение режима                        : CM (complete main)
Параметр Endianness формата              : Big
Идентификатор кодека                     : A_AC3
Продолжительность                        : 1 ч. 12 м.
Вид битрейта                             : Постоянный
Битрейт                                  : 384 Кбит/сек
Каналы                                   : 6 каналов
Расположение каналов                     : Front: L C R, Side: L R, LFE
Частота                                  : 48,0 КГц
Метод сжатия                             : С потерями
Размер потока                            : 200 Мбайт (6%)
Заголовок                                : Английский: 384 Kb/s (6 ch)
Язык                                     : English
Меню
00:00:00.000                             : en:1
00:07:45.000                             : en:2
00:13:51.000                             : en:3
00:20:37.000                             : en:4
00:27:31.000                             : en:5
00:34:56.000                             : en:6
00:39:26.000                             : en:7
00:45:32.000                             : en:8
00:54:51.000                             : en:9
01:01:04.000                             : en:10
01:05:46.000                             : en:11
01:10:06.000                             : en:12
Скриншоты:
--
[Профиль] [ЛС]
Показать сообщения:    

Текущее время: Сегодня 03:06

Часовой пояс: GMT



Вы не можете начинать темы
Вы не можете отвечать на сообщения
Вы не можете редактировать свои сообщения
Вы не можете удалять свои сообщения
Вы не можете голосовать в опросах
Вы не можете прикреплять файлы к сообщениям
Вы не можете скачивать файлы