Только хороший индеец / The Only Good Indian (Кевин Уиллмотт / Kevin Willmott) [2009, США, драма, вестерн, DVDRip] VO + Sub Eng

 
Автор Сообщение

TorrentFilm ®

Пол:

Стаж: 2 года

Сообщений: 7741



Награды: Нет

Торрент-статистика

Создавать темы 31-Июл-2015 00:07

[Цитировать]

Только хороший индеец / The Only Good Indian
Страна: США
Жанр: драма, вестерн
Год выпуска: 2009
Продолжительность: 01:53:56
Перевод: Одноголосый закадровый (Architector44)
Cубтитры: английские на индейскую речь, вшитые
Оригинальная аудиодорожка: нет
Режиссер: Кевин Уиллмотт / Kevin Willmott
В ролях: Уэс Стьюди, Дж. Кеннет Кэмпбелл, Винтер Фокс Фрэнк, Пол Батлер, Thirza Defoe, Кристофер Уитли, Лаура Кирк, Деланна Стади, Блейк Роббинс, Кевин Гир
Описание: Индейских детей насильно отлучали от своих родителей, отправляя их в специальные школы. Nachwihiata (Зимний лис Frank) мирно рос на ферме в Канзасе, в начале 1900-х годов, но жизнь семьи нарушена, когда его отбирают у родителей и насильно помещают в "школу" для детей коренных американцев. Считается, что детей приобщают к христианским традициям белой Америки, но на самом деле их беспощадно эксплуатируют. "Чарли" - Nachwihiata бежит из такой школы обратно к родителям. Детектив Сэм обнаруживает его на ферме афроамериканцев, приютивших беглеца. Проблема в том, что Сэм-индеец, вставший на путь белых. Но, по пути им попадается трое ковбоев, намеревающихся проводить беглеца обратно в школу. Nachwihiata развязывает стрельбу. Три трупа, а по их следам уже идет старый знакомый Сэма-шериф Генри МакКой.
(" The only good Indian is a dead Indian") "Хороший индеец - только мертвый индеец" Расистская фраза, приписываемая генералу Ф. Шеридану [Sheridan, Philip Henry]. Спустя десятилетие, когда война была закончена и индейцы были разгромлены, он же высказался следующим образом: "Мы отобрали у них земли и средства к существованию, нарушили их жизненный уклад, их обычаи, принесли им болезни и загнивание общества, и именно поэтому и против всего этого они объявили войну. Мог ли кто-либо ожидать чего-то иного?"
Доп. информация: Рип найден в сети. Большое спасибо 7букв Вестерн / группе имени Джесси Джеймса, за дорожку с русским переводом, извлеченную из сети, озвучен Architector44
Перевод и озвучка идентичны с предыдущей раздачей, отличаются только по качеству звуковой дорожки.
Сэмпл: http://multi-up.com/1060662
Качество видео: DVDRip
Формат видео: AVI
Видео: Xvid 624x352 23.976fps 700 Kbps
Аудио: MP3 48000Hz stereo 192kbps русская
Формат субтитров: hardsub (неотключаемые)

MediaInfo

General Complete name : H:\фильмы\Donlowds\The Only Good Indian 2009 DVDRip XviD-LAP.RUS.avi Format : AVI Format/Info : Audio Video Interleave File size : 734 MiB Duration : 1h 53mn Overall bit rate : 901 Kbps Video #0 ID : 0 Format : MPEG-4 Visual Format profile : Advanced Simple@L5 Format settings, BVOP : Yes Format settings, QPel : No Format settings, GMC : No warppoints Format settings, Matrix : Default (MPEG) Codec ID : XVID Codec ID/Hint : XviD Duration : 1h 53mn Bit rate : 700 Kbps Width : 624 pixels Height : 352 pixels Display aspect ratio : 16:9 Frame rate : 23.976 fps Color space : YUV Chroma subsampling : 4:2:0 Bit depth : 8 bits Scan type : Progressive Bits/(Pixel*Frame) : 0.133 Stream size : 570 MiB (78%) Writing library : XviD 1.2.1 (UTC 2008-12-04) Audio #1 ID : 1 Format : MPEG Audio Format version : Version 1 Format profile : Layer 3 Mode : Joint stereo Mode extension : MS Stereo Codec ID : 55 Codec ID/Hint : MP3 Duration : 1h 53mn Bit rate mode : Constant Bit rate : 192 Kbps Channel(s) : 2 channels Sampling rate : 48.0 KHz Stream size : 156 MiB (21%) Alignment : Aligned on interleaves Interleave, duration : 42 ms (1.00 video frame) Interleave, preload duration : 504 ms Writing library : LAME3.96.1

Скриншот c названием фильма

Скриншоты




[Профиль] [ЛС]

Создавать темы 06-Авг-2015 22:23 (спустя 6 дней)

Топик был перенесен из форума Фильмы до 2014 года в форум Фильмы до 2012 года
sergej644
 

Создавать темы 12-Июн-2016 08:49 (спустя 10 месяцев 12 дней)

Топик был перенесен из форума Фильмы 2011 года в форум Фильмы 2009 года
Russian Mafia
 
Показать сообщения:    

Текущее время: Сегодня 14:50

Часовой пояс: GMT



Вы не можете начинать темы
Вы не можете отвечать на сообщения
Вы не можете редактировать свои сообщения
Вы не можете удалять свои сообщения
Вы не можете голосовать в опросах
Вы не можете прикреплять файлы к сообщениям
Вы не можете скачивать файлы