Только ты / Sadece Sen (Хакан Йонат / Hakan Yonat) [2014, Турция, Драма, WEB-DLRip] DVO + turk original

 
Автор Сообщение

Создавать темы 13-Июл-2014 16:36

Только ты / Sadece Sen
Страна: Турция, Boyut Film, Pinema
Жанр: Драма
Год выпуска: 2014
Продолжительность: 01:40:43
Перевод: Любительский (двухголосый закадровый) shachter58, Лидия Максимова
Cубтитры: нет
Оригинальная аудиодорожка: Турецкий
Режиссер: Хакан Йонат / Hakan Yonat
В ролях: Белчим Билгин, Джезми Баскын, Ибрахим Челиккол, Неджми Япыджы, Левент Сюлюн, Барыш Ардуч, Эрол Гедик, Эрол Демирёз, Керем Джан
Описание: "Только ты" – новый фильм турецкого режиссера Хакана Йоната, который поведает нам захватывающую историю любви. Судьба всегда преподносит людям свои сюрпризы, иногда даже самая безобидная привычка смотреть дорамы с дедушкой-охранником может создать условия для роковой встречи со своей любовью. Так и получилось у главной героини - слепой девушки Хазал встретить бывшего боксера Али. Конечно, мужчина, по началу, отталкивает её своей грубостью и хмуростью, словно одичавший домашний зверь, но юная девушка растопит черствое сердце своего героя и обретёт с ним истинное счастье, которое ведомо только двум влюбленным. Это прекрасная история о роковой любви, о том, как много человек готов отдать ради счастья своей второй половины и о том, как может быть изменчива судьба, особенно тогда, когда казалось бы всё хорошо.
Релиз киноклуба "ФЕНИКС". Автор РИПА - shachter58. Фильм озвучен по переводу с турецкого - Эльвина Аскерова, Редактор - Ирина Петрова, субтитры - Анастасии Горбанёвой. (по заказу сайта tvnovella.ru)
Сэмпл: http://multi-up.com/982922

Качество видео: WEB-DLRip
Формат видео: AVI
Видео: MPEG-4 Visual, XviD, 1587 Кбит/с, 25.000 fps, 720x304, Bits/(Pixel*Frame)-0.290
Аудио: MPEG Audio, МР3, 2 channels, 44.1 KHz, 192 Kbps - Русский
Аудио 2: MPEG Audio, МР3, 2 channels, 44.1 KHz, 192 Kbps - Турецкий

MediaInfo

General
Complete name : F:\КИНО ТУРЦИИ\Tolko.TY.2014.Russ.DVO.Web-DLRip.Fenixclub.avi
Format : AVI
Format/Info : Audio Video Interleave
File size : 1.40 GiB
Duration : 1h 40mn
Overall bit rate : 1 985 Kbps
Video #0
ID : 0
Format : MPEG-4 Visual
Format profile : Advanced Simple@L5
Format settings, BVOP : 2
Format settings, QPel : No
Format settings, GMC : No warppoints
Format settings, Matrix : Default (H.263)
Codec ID : XVID
Codec ID/Hint : XviD
Duration : 1h 40mn
Bit rate : 1 587 Kbps
Width : 720 pixels
Height : 304 pixels
Display aspect ratio : 2.35:1
Frame rate : 25.000 fps
Color space : YUV
Chroma subsampling : 4:2:0
Bit depth : 8 bits
Scan type : Progressive
Compression mode : Lossy
Bits/(Pixel*Frame) : 0.290
Stream size : 1.12 GiB (80%)
Writing library : XviD 64
Audio #1
ID : 1
Format : MPEG Audio
Format version : Version 1
Format profile : Layer 3
Codec ID : 55
Codec ID/Hint : MP3
Duration : 1h 40mn
Bit rate mode : Constant
Bit rate : 192 Kbps
Channel(s) : 2 channels
Sampling rate : 44.1 KHz
Compression mode : Lossy
Stream size : 138 MiB (10%)
Alignment : Split accross interleaves
Interleave, duration : 40 ms (1.00 video frame)
Interleave, preload duration : 500 ms
Writing library : LAME3.98r
Encoding settings : -m s -V 4 -q 3 -lowpass 18.6 -b 192
Audio #2
ID : 2
Format : MPEG Audio
Format version : Version 1
Format profile : Layer 3
Mode : Joint stereo
Mode extension : MS Stereo
Codec ID : 55
Codec ID/Hint : MP3
Duration : 1h 40mn
Bit rate mode : Constant
Bit rate : 192 Kbps
Channel(s) : 2 channels
Sampling rate : 44.1 KHz
Compression mode : Lossy
Stream size : 138 MiB (10%)
Alignment : Split accross interleaves
Interleave, duration : 40 ms (1.00 video frame)
Interleave, preload duration : 500 ms
Writing library : LAME3.99.5

Скриншот c названием фильма

Скриншоты


 
Показать сообщения:    

Текущее время: Сегодня 02:08

Часовой пояс: GMT



Вы не можете начинать темы
Вы не можете отвечать на сообщения
Вы не можете редактировать свои сообщения
Вы не можете удалять свои сообщения
Вы не можете голосовать в опросах
Вы не можете прикреплять файлы к сообщениям
Вы не можете скачивать файлы