Толстяк против всех / Paul Blart: Mall Cop 2 (Энди Фикмен / Andy Fickman) [2015, США, боевик, комедия, BDRip] MVO + Original Eng + Sub Rus, Eng

 
Автор Сообщение

TorrentFilm ®

Пол:

Стаж: 2 года

Сообщений: 7741



Награды: Нет

Торрент-статистика

Создавать темы 23-Окт-2015 00:11

[Цитировать]

Толстяк против всех / Paul Blart: Mall Cop 2- Страна: США
Жанр: боевик, комедия
Год выпуска: 2015
Продолжительность: 01:34:00
Перевод: Профессиональный (многоголосый закадровый)
Русские субтитры: есть
Оригинальная аудиодорожка: английский-Режиссер: Энди Фикмен / Andy Fickman-В ролях: Кевин Джеймс, Рейни Родригес, Эдуардо Верастеги, Даниэлла Алонсо, Нил МакДонаф, Дэвид Генри, Д.Б. Вудсайд, Николас Туртурро, Лони Лав, Гари Валентайн.-Описание: Охранник Пол отправляется в Лас-Вегас, чтобы посетить посвященную охране выставку вместе со своей дочерью Майей, прежде чем она уедет в колледж. На выставке Пол случайно узнает об ограблении и решает задержать преступников.-Download sample-Качество видео: BDRip (PAUL.BLART.MALL.COP.2.HDCLUB)
Формат видео: AVI
Видео: 720x384 (1.85:1), 23.976 fps, XviD build 73 ~2366 kbps avg, 0.36 bit/pixel
Аудио 1: 48 kHz, AC3 Dolby Digital, 3/2 (L,C,R,l,r) + LFE ch, ~448.00 kbps avg | BD CEE
Аудио 2: 48 kHz, AC3 Dolby Digital, 3/2 (L,C,R,l,r) + LFE ch, ~448.00 kbps avg | Original
Субтитры: русские полные, английские полные и полные SDH (за субтитры спасибо HQClub)

Инфо

Format : AVI
Format/Info : Audio Video Interleave
Format profile : OpenDML
File size : 2.15 GiB
Duration : 1h 34mn
Overall bit rate : 3 280 Kbps
Writing application : VirtualDubMod 1.5.10.3 (build 2550/release)
Writing library : VirtualDubMod build 2550/release
Video
ID : 0
Format : MPEG-4 Visual
Format profile : Advanced Simple@L5
Format settings, BVOP : Yes
Format settings, QPel : No
Format settings, GMC : No warppoints
Format settings, Matrix : Default (MPEG)
Codec ID : XVID
Codec ID/Hint : XviD
Duration : 1h 34mn
Bit rate : 2 366 Kbps
Width : 720 pixels
Height : 384 pixels
Display aspect ratio : 1.875
Frame rate : 23.976 fps
Color space : YUV
Chroma subsampling : 4:2:0
Bit depth : 8 bits
Scan type : Progressive
Bits/(Pixel*Frame) : 0.357
Stream size : 1.55 GiB (72%)
Writing library : XviD 73
Audio #1
ID : 1
Format : AC-3
Format/Info : Audio Coding 3
Mode extension : CM (complete main)
Codec ID : 2000
Duration : 1h 34mn
Bit rate mode : Constant
Bit rate : 448 Kbps
Channel(s) : 6 channels
Channel positions : Front: L C R, Side: L R, LFE
Sampling rate : 48.0 KHz
Bit depth : 16 bits
Stream size : 301 MiB (14%)
Alignment : Split accross interleaves
Interleave, duration : 42 ms (1.00 video frame)
Interleave, preload duration : 500 ms
Audio #2
ID : 2
Format : AC-3
Format/Info : Audio Coding 3
Mode extension : CM (complete main)
Codec ID : 2000
Duration : 1h 34mn
Bit rate mode : Constant
Bit rate : 448 Kbps
Channel(s) : 6 channels
Channel positions : Front: L C R, Side: L R, LFE
Sampling rate : 48.0 KHz
Bit depth : 16 bits
Stream size : 301 MiB (14%)
Alignment : Split accross interleaves
Interleave, duration : 42 ms (1.00 video frame)
Interleave, preload duration : 500 ms

Скриншоты

[Профиль] [ЛС]
Показать сообщения:    

Текущее время: Сегодня 12:49

Часовой пояс: GMT



Вы не можете начинать темы
Вы не можете отвечать на сообщения
Вы не можете редактировать свои сообщения
Вы не можете удалять свои сообщения
Вы не можете голосовать в опросах
Вы не можете прикреплять файлы к сообщениям
Вы не можете скачивать файлы