Толстяк против всех / Paul Blart: Mall Cop 2 (Энди Фикмен / Andy Fickman) [2015, США, Боевик, комедия, BDRip-AVC] MVO (Rus Blu-ray CEE) + MVO (Ukr Blu-ray CEE) + Sub Rus, Eng + Original Eng

 
Автор Сообщение

TorrentFilm ®

Пол:

Стаж: 2 года

Сообщений: 7741



Награды: Нет

Торрент-статистика

Создавать темы 05-Сен-2015 00:10

[Цитировать]

Толстяк против всех
Paul Blart: Mall Cop 2
- Страна: США
Жанр: Боевик, комедия
Год выпуска: 2015
Продолжительность: 01:34:00
Перевод: Профессиональный (многоголосый закадровый) Rus Blu-ray CEE
Перевод 2: Профессиональный (многоголосый закадровый) Ukr Blu-ray CEE
Cубтитры: Rus, Eng
Оригинальная аудиодорожка: английский
Режиссер: Энди Фикмен / Andy Fickman
В ролях:
Кевин Джеймс | Kevin James
Рейни Родригес, Эдуардо Верастеги, Даниэлла Алонсо, Нил МакДонаф, Дэвид Хенри, Д.Б. Вудсайд, Николас Туртурро, Лони Лав, Гари Валентайн-ОписаниеОхранник Пол отправляется в Лас-Вегас, чтобы посетить посвященную охране выставку вместе со своей дочерью Майей, прежде чем она уедет в колледж. На выставке Пол случайно узнает об ограблении и решает задержать преступников.-Сэмпл

IMDb: 4.30 (12 533)
Качество видео: BDRip-AVC PAUL_BLART_MALL_COP_2_REMUX_HDCLUB
Формат видео: MKV
Видео: AVC 3926 Kbps 1136 x 614 (1.850) 23.976 fps
Аудио: AC-3 448 Kbps 6 channels, 48.0 KHz Rus Blu-ray CEE
Аудио 2: AC-3 448 Kbps 6 channels, 48.0 KHz Ukr Blu-ray CEE
Аудио 3: AC-3 448 Kbps 6 channels, 48.0 KHz Eng
Формат субтитров: softsub (SRT)

MediaInfo | LogLog

x264 [info]: frame I:1608 Avg QP:16.20 size:113921
x264 [info]: frame P:33124 Avg QP:17.20 size: 40560
x264 [info]: frame B:100508 Avg QP:19.66 size: 13082
x264 [info]: consecutive B-frames: 2.8% 4.2% 7.0% 46.7% 12.9% 21.2% 2.8% 1.9% 0.3% 0.1% 0.3% 0.0% 0.0%
x264 [info]: mb I I16..4: 4.5% 71.9% 23.7%
x264 [info]: mb P I16..4: 1.3% 11.2% 1.9% P16..4: 29.3% 34.9% 14.7% 2.6% 0.3% skip: 3.8%
x264 [info]: mb B I16..4: 0.1% 1.2% 0.2% B16..8: 32.8% 22.2% 4.2% direct: 6.4% skip:32.9% L0:40.4% L1:44.4% BI:15.2%
x264 [info]: 8x8 transform intra:76.3% inter:57.4%
x264 [info]: direct mvs spatial:100.0% temporal:0.0%
x264 [info]: coded y,uvDC,uvAC intra: 86.8% 95.1% 87.6% inter: 22.6% 33.8% 21.8%
x264 [info]: i16 v,h,dc,p: 51% 17% 4% 28%
x264 [info]: i8 v,h,dc,ddl,ddr,vr,hd,vl,hu: 12% 9% 8% 9% 13% 13% 12% 12% 13%
x264 [info]: i4 v,h,dc,ddl,ddr,vr,hd,vl,hu: 15% 10% 8% 8% 13% 12% 12% 10% 11%
x264 [info]: i8c dc,h,v,p: 50% 17% 15% 18%
x264 [info]: Weighted P-Frames: Y:3.0% UV:1.6%
x264 [info]: ref P L0: 48.4% 10.4% 17.0% 5.8% 5.1% 3.6% 3.4% 1.7% 1.7% 1.3% 1.4% 0.1% 0.0%
x264 [info]: ref B L0: 77.5% 10.2% 4.3% 2.3% 1.7% 1.6% 1.1% 0.7% 0.4% 0.3%
x264 [info]: ref B L1: 94.6% 5.4%
x264 [info]: kb/s:4030.09
x264 [total]: encoded 135240 frames, 7.70 fps, 4030.09 kb/s, duration 4:52:50.13
Format : Matroska
Format version : Version 4 / Version 2
File size : 3.53 GiB
Duration : 1h 34mn
Overall bit rate : 5 377 Kbps
Encoded date : UTC 2015-08-21 20:21:34
Writing application : mkvmerge v6.7.0 ('Back to the Ground') 32bit built on Jan 8 2014 15:03:17
Writing library : libebml v1.3.0 + libmatroska v1.4.1
Video
ID : 1
Format : AVC
Format/Info : Advanced Video Codec
Format profile : High@L4.1
Format settings, CABAC : Yes
Format settings, ReFrames : 11 frames
Codec ID : V_MPEG4/ISO/AVC
Duration : 1h 34mn
Bit rate : 3 926 Kbps
Width : 1 136 pixels
Height : 614 pixels
Display aspect ratio : 1.85:1
Frame rate mode : Constant
Frame rate : 23.976 fps
Color space : YUV
Chroma subsampling : 4:2:0
Bit depth : 8 bits
Scan type : Progressive
Bits/(Pixel*Frame) : 0.235
Stream size : 2.58 GiB (73%)
Title : Paul Blart: Mall Cop 2 (2015) [torrentfilm.net]
Writing library : x264 core 148 r2579kMod 73ae2d1
Encoding settings : cabac=1 / ref=11 / deblock=1:-2:-1 / analyse=0x3:0x133 / me=umh / subme=11 / psy=1 / fade_compensate=0.00 / psy_rd=1.00:0.05 / mixed_ref=1 / me_range=32 / chroma_me=1 / trellis=2 / 8x8dct=1 / cqm=0 / deadzone=21,11 / fast_pskip=0 / chroma_qp_offset=-3 / threads=12 / lookahead_threads=3 / sliced_threads=0 / nr=0 / decimate=1 / interlaced=0 / bluray_compat=0 / constrained_intra=0 / fgo=0 / bframes=12 / b_pyramid=2 / b_adapt=2 / b_bias=0 / direct=3 / weightb=1 / open_gop=0 / weightp=2 / keyint=250 / keyint_min=23 / scenecut=40 / intra_refresh=0 / rc_lookahead=80 / rc=crf / mbtree=0 / crf=17.7000 / qcomp=0.60 / qpmin=0 / qpmax=69 / qpstep=4 / vbv_maxrate=50000 / vbv_bufsize=62500 / crf_max=0.0 / nal_hrd=none / filler=0 / ip_ratio=1.40 / pb_ratio=1.30 / aq=3:0.90
Language : English
Default : Yes
Forced : No
Audio #1
ID : 2
Format : AC-3
Format/Info : Audio Coding 3
Mode extension : CM (complete main)
Format settings, Endianness : Big
Codec ID : A_AC3
Duration : 1h 34mn
Bit rate mode : Constant
Bit rate : 448 Kbps
Channel(s) : 6 channels
Channel positions : Front: L C R, Side: L R, LFE
Sampling rate : 48.0 KHz
Compression mode : Lossy
Stream size : 301 MiB (8%)
Title : MVO [Blu-ray CEE ]
Language : Russian
Default : Yes
Forced : No
Audio #2
ID : 3
Format : AC-3
Format/Info : Audio Coding 3
Mode extension : CM (complete main)
Format settings, Endianness : Big
Codec ID : A_AC3
Duration : 1h 34mn
Bit rate mode : Constant
Bit rate : 448 Kbps
Channel(s) : 6 channels
Channel positions : Front: L C R, Side: L R, LFE
Sampling rate : 48.0 KHz
Compression mode : Lossy
Stream size : 301 MiB (8%)
Title : MVO [Blu-ray CEE ]
Language : Ukrainian
Default : No
Forced : No
Audio #3
ID : 4
Format : AC-3
Format/Info : Audio Coding 3
Mode extension : CM (complete main)
Format settings, Endianness : Big
Codec ID : A_AC3
Duration : 1h 34mn
Bit rate mode : Constant
Bit rate : 448 Kbps
Channel(s) : 6 channels
Channel positions : Front: L C R, Side: L R, LFE
Sampling rate : 48.0 KHz
Compression mode : Lossy
Stream size : 301 MiB (8%)
Title : Original
Language : English
Default : No
Forced : No
Text #1
ID : 5
Format : UTF-8
Codec ID : S_TEXT/UTF8
Codec ID/Info : UTF-8 Plain Text
Title : Full
Language : Russian
Default : No
Forced : No
Text #2
ID : 6
Format : UTF-8
Codec ID : S_TEXT/UTF8
Codec ID/Info : UTF-8 Plain Text
Title : Full
Language : English
Default : No
Forced : No
Menu
00:00:00.000 : en:00:00:00.000
00:04:22.345 : en:00:04:22.345
00:14:20.526 : en:00:14:20.526
00:20:36.819 : en:00:20:36.819
00:25:51.216 : en:00:25:51.216
00:32:21.439 : en:00:32:21.439
00:36:46.204 : en:00:36:46.204
00:39:57.061 : en:00:39:57.061
00:47:54.955 : en:00:47:54.955
00:53:27.162 : en:00:53:27.162
00:59:12.507 : en:00:59:12.507
01:06:07.964 : en:01:06:07.964
01:12:24.674 : en:01:12:24.674
01:19:40.693 : en:01:19:40.693
01:23:42.851 : en:01:23:42.851
01:27:24.072 : en:01:27:24.072

Скриншоты




[Профиль] [ЛС]
Показать сообщения:    

Текущее время: Сегодня 18:39

Часовой пояс: GMT



Вы не можете начинать темы
Вы не можете отвечать на сообщения
Вы не можете редактировать свои сообщения
Вы не можете удалять свои сообщения
Вы не можете голосовать в опросах
Вы не можете прикреплять файлы к сообщениям
Вы не можете скачивать файлы