Толстяк против всех / Paul Blart: Mall Cop 2 (Энди Фикмен / Andy Fickman) [2015, США, Боевик, комедия, BDRip-AVC] MVO ( iTunes) + Eng + Sub (Rus, Eng)

 
Автор Сообщение

TorrentFilm ®

Пол:

Стаж: 2 года

Сообщений: 7741



Награды: Нет

Торрент-статистика

Создавать темы 29-Авг-2015 00:10

[Цитировать]

Толстяк против всех / Paul Blart: Mall Cop 2
«Vegas has a new high roller»

-
Страна: США
Жанр: Боевик, комедия
Год выпуска: 2015
Продолжительность: 01:34:00-Перевод: Профессиональный (многоголосый закадровый) iTunes Russia
Cубтитры: русские, английские-Режиссер: Энди Фикмен / Andy Fickman
В ролях: Кевин Джеймс, Рейни Родригес, Эдуардо Верастеги, Даниэлла Алонсо, Нил МакДонаф, Дэвид Хенри, Д.Б. Вудсайд, Николас Туртурро, Лони Лав, Гари Валентайн
Описание: Охранник Пол отправляется в Лас-Вегас, чтобы посетить посвященную охране выставку вместе со своей дочерью Майей, прежде чем она уедет в колледж. На выставке Пол случайно узнает об ограблении и решает задержать преступников.-Качество видео: BDRip-AVC [BDRemux 1080p HDCLub]
Формат видео: MKV-Видео: х.264, 1120x602 (1,85:1), 23.976 fps, ~2498 Кbps, 0.155 bit/pixel
Аудио 1: AC3 384 Кбит/сек (6 ch), 48,0 КГц, 16 бит | MVO
Аудио 2: AC3 448 Кбит/сек (6 ch), 48,0 КГц, 16 бит | ENG
Формат субтитров: SoftSub (SRT)
-- -
-

MediaInfo & log x264log x264

x264 [info]: using SAR=1/1
x264 [info]: using cpu capabilities: MMX2 SSE2Fast SSSE3 SSE4.2
x264 [info]: profile High, level 4.1
x264 [info]: frame I:1621 Avg QP:16.03 size:115020
x264 [info]: frame P:34576 Avg QP:19.61 size: 27185
x264 [info]: frame B:99042 Avg QP:24.03 size: 6406
x264 [info]: consecutive B-frames: 3.5% 5.2% 8.1% 46.4% 12.8% 19.2% 2.6% 1.9% 0.2% 0.1% 0.1% 0.0%
x264 [info]: mb I I16..4: 8.6% 63.2% 28.2%
x264 [info]: mb P I16..4: 0.8% 6.1% 1.1% P16..4: 31.8% 33.4% 12.9% 2.3% 0.4% skip:11.3%
x264 [info]: mb B I16..4: 0.1% 0.7% 0.1% B16..8: 32.4% 14.0% 2.2% direct: 2.7% skip:47.8% L0:40.0% L1:47.8% BI:12.1%
x264 [info]: 8x8 transform intra:72.8% inter:62.8%
x264 [info]: direct mvs spatial:97.1% temporal:2.9%
x264 [info]: coded y,uvDC,uvAC intra: 82.3% 84.5% 66.0% inter: 14.3% 17.4% 7.8%
x264 [info]: i16 v,h,dc,p: 22% 16% 5% 57%
x264 [info]: i8 v,h,dc,ddl,ddr,vr,hd,vl,hu: 10% 8% 5% 10% 14% 14% 14% 12% 12%
x264 [info]: i4 v,h,dc,ddl,ddr,vr,hd,vl,hu: 13% 9% 5% 9% 15% 14% 13% 11% 12%
x264 [info]: i8c dc,h,v,p: 39% 22% 19% 20%
x264 [info]: Weighted P-Frames: Y:2.2% UV:1.0%
x264 [info]: ref P L0: 52.8% 10.9% 15.9% 5.6% 4.2% 3.3% 2.7% 1.5% 1.4% 1.6% 0.2% 0.0%
x264 [info]: ref B L0: 81.8% 8.9% 3.9% 1.7% 1.2% 0.9% 0.8% 0.4% 0.3%
x264 [info]: ref B L1: 94.5% 5.5%
x264 [info]: kb/s:2497.44
General
Unique ID                   : 250631679516695683713569241367860793199 (0xBC8DE7D94A267470AB1A6AC1B430CF6F)
Complete name               : D:\Paul.Blart_Mall.Cop.2(2015).BDRip-AVC_R.G_All.Films.mkv
Format                      : Matroska
Format version              : Version 4 / Version 2
File size                   : 2.19 GiB
Duration                    : 1h 34mn
Overall bit rate            : 3 332 Kbps
Movie name                  : Толстяк против всех / Paul Blart: Mall Cop 2 (2015) BDRip-AVC by andre90
Encoded date                : UTC 2015-08-28 13:22:06
Writing application         : mkvmerge v8.2.0 ('World of Adventure') 32bit
Writing library             : libebml v1.3.1 + libmatroska v1.4.2
Attachements                : cover.jpg
DURATION                    : 01:28:00.110000000
NUMBER_OF_FRAMES            : 1296
NUMBER_OF_BYTES             : 46240
_STATISTICS_WRITING_APP     : mkvmerge v8.2.0 ('World of Adventure') 32bit
_STATISTICS_WRITING_DATE_UT : 2015-08-28 13:22:06
_STATISTICS_TAGS            : BPS DURATION NUMBER_OF_FRAMES NUMBER_OF_BYTES
Video
ID                          : 1
Format                      : AVC
Format/Info                 : Advanced Video Codec
Format profile              : High@L4.1
Format settings, CABAC      : Yes
Format settings, ReFrames   : 10 frames
Codec ID                    : V_MPEG4/ISO/AVC
Duration                    : 1h 34mn
Bit rate                    : 2 498 Kbps
Width                       : 1 120 pixels
Height                      : 602 pixels
Display aspect ratio        : 1.85:1
Frame rate mode             : Constant
Frame rate                  : 23.976 fps
Color space                 : YUV
Chroma subsampling          : 4:2:0
Bit depth                   : 8 bits
Scan type                   : Progressive
Bits/(Pixel*Frame)          : 0.155
Stream size                 : 1.60 GiB (73%)
Writing library             : x264 core 146 r2538 121396c
Encoding settings           : cabac=1 / ref=10 / deblock=1:-3:-2 / analyse=0x3:0x133 / me=esa / subme=11 / psy=1 / psy_rd=0.93:0.00 / mixed_ref=1 / me_range=48 / chroma_me=1 / trellis=2 / 8x8dct=1 / cqm=0 / deadzone=21,11 / fast_pskip=0 / chroma_qp_offset=-2 / threads=6 / lookahead_threads=1 / sliced_threads=0 / nr=0 / decimate=1 / interlaced=0 / bluray_compat=0 / constrained_intra=0 / bframes=11 / b_pyramid=2 / b_adapt=2 / b_bias=0 / direct=3 / weightb=1 / open_gop=0 / weightp=2 / keyint=240 / keyint_min=23 / scenecut=40 / intra_refresh=0 / rc_lookahead=40 / rc=2pass / mbtree=1 / bitrate=2498 / ratetol=1.0 / qcomp=0.60 / qpmin=0 / qpmax=69 / qpstep=4 / cplxblur=20.0 / qblur=0.5 / vbv_maxrate=50000 / vbv_bufsize=62500 / nal_hrd=none / filler=0 / ip_ratio=1.40 / aq=2:1.00
Default                     : Yes
Forced                      : No
Audio #1
ID                          : 2
Format                      : AC-3
Format/Info                 : Audio Coding 3
Mode extension              : CM (complete main)
Format settings, Endianness : Big
Codec ID                    : A_AC3
Duration                    : 1h 34mn
Bit rate mode               : Constant
Bit rate                    : 384 Kbps
Channel(s)                  : 6 channels
Channel positions           : Front: L C R, Side: L R, LFE
Sampling rate               : 48.0 KHz
Compression mode            : Lossy
Delay relative to video     : 7ms
Stream size                 : 258 MiB (12%)
Language                    : Russian
Default                     : Yes
Forced                      : No
Audio #2
ID                          : 3
Format                      : AC-3
Format/Info                 : Audio Coding 3
Mode extension              : CM (complete main)
Format settings, Endianness : Big
Codec ID                    : A_AC3
Duration                    : 1h 34mn
Bit rate mode               : Constant
Bit rate                    : 448 Kbps
Channel(s)                  : 6 channels
Channel positions           : Front: L C R, Side: L R, LFE
Sampling rate               : 48.0 KHz
Compression mode            : Lossy
Stream size                 : 301 MiB (13%)
Default                     : No
Forced                      : No
Text #1
ID                          : 4
Format                      : UTF-8
Codec ID                    : S_TEXT/UTF8
Codec ID/Info               : UTF-8 Plain Text
Language                    : Russian
Default                     : No
Forced                      : No
Text #2
ID                          : 5
Format                      : UTF-8
Codec ID                    : S_TEXT/UTF8
Codec ID/Info               : UTF-8 Plain Text
Language                    : English
Default                     : Yes
Forced                      : No
Menu
00:00:00.000                : en:Chapter 1
00:04:22.345                : en:Chapter 2
00:14:20.525                : en:Chapter 3
00:20:36.817                : en:Chapter 4
00:25:51.215                : en:Chapter 5
00:32:21.439                : en:Chapter 6
00:36:46.204                : en:Chapter 7
00:39:57.061                : en:Chapter 8
00:47:54.954                : en:Chapter 9
00:53:27.161                : en:Chapter 10
00:59:12.507                : en:Chapter 11
01:06:07.963                : en:Chapter 12
01:12:24.671                : en:Chapter 13
01:19:40.692                : en:Chapter 14
01:23:42.850                : en:Chapter 15
01:27:24.072                : en:Chapter 16
[Профиль] [ЛС]
Показать сообщения:    

Текущее время: Сегодня 08:13

Часовой пояс: GMT



Вы не можете начинать темы
Вы не можете отвечать на сообщения
Вы не можете редактировать свои сообщения
Вы не можете удалять свои сообщения
Вы не можете голосовать в опросах
Вы не можете прикреплять файлы к сообщениям
Вы не можете скачивать файлы