Токсичный мститель 2 / The Toxic Avenger, Part II (1989) BDRemux 1080p | A, L1

 
Автор Сообщение

Russian Mafia ®

Пол:

Стаж: 1 год 8 месяцев

Сообщений: 4246



Награды: 10 (Подробнее)

Top Releaser 3 (Количество: 1) Mega Seeder 5 (Количество: 1) Mega Seeder 1 (Количество: 1)
Торрент-статистика

Создавать темы 03-Апр-2016 04:00

[Цитировать]

Информация о фильме
Название: Токсичный мститель 2
Оригинальное название: The Toxic Avenger, Part II
Год выхода: 1989
Жанр: фантастика, комедия, боевик, ужасы, приключения
Режиссер: Майкл Херц, Ллойд Кауфман
В ролях: Лайза Гэй, Рон Фацио, Джон Альтамура, Рикия Ясуока, Рик Коллинз, Фиби Лигер
О фильме: Слабак Джанко, который упал в ядерные отходы в предыдущей первой части и превратился в мутанта — супергероя, вновь с Вами. Злодеи из корпорации «Апокалипсис» на свободе, и значит «Ядик» снова при деле. Теперь он сражается с одной японской компанией, собирающейся построить новый склад химических отходов.

Страна: США
Продолжительность: 01:48:43
Перевод 1: Авторский (одноголосый закадровый) Леонид Володарский
Перевод 2: Любительский (одноголосый, закадровый) Сергей Зерницын
Оригинальная аудиодорожка: английский
Файл
Качество: BDRemux 1080p
Видео: 1920 x 1080 / MPEG-4 AVC Video / 29000 kbps / 1080p / 23.976 fps / 16:9 / High Profile 4.1
Аудио 1: Русский / AC3 / 2.0 / 192 Kbps / 48,0 kHz (Volodarskiy)
Аудио 2: Русский / AC3 / 2.0 / 192 Kbps / 48,0 kHz (VO)
Аудио 3: English / FLAC / 2.0 / 48 kHz / ~706 kbps (Original)
Аудио 4: English / FLAC / 2.0 / 48 kHz / ~538 kbps (Commentary)
Субтитры: английские

Скриншоты

MediaInfo

Общее
Уникальный идентификатор : 176439178671700127212701400963271672873 (0x84BCF323412A01CDB8B6C1D4A11CC429)
Полное имя : The.Toxic.Avenger.Part.II.1989.BDRemux.1080p.2xRus.Eng.mkv
Формат : Matroska
Версия формата : Version 4 / Version 2
Размер файла : 23,3 Гбайт
Продолжительность : 1 ч. 48 м.
Режим общего битрейта : Переменный
Общий поток : 30,6 Мбит/сек
Название фильма : Toxic Avenger Part II
Дата кодирования : UTC 2016-03-10 06:54:01
Программа кодирования : mkvmerge v7.3.0 ('Nouages') 32bit built on Oct 22 2014 18:44:01
Библиотека кодирования : libebml v1.3.0 + libmatroska v1.4.1
_STATISTICS_WRITING_APP : mkvmerge v7.3.0 ('Nouages') 32bit built on Oct 22 2014 18:44:01
_STATISTICS_WRITING_DATE_UTC : 2016-03-10 06:54:01
_STATISTICS_TAGS : BPS DURATION NUMBER_OF_FRAMES NUMBER_OF_BYTES
DURATION : 01:43:17.752000000
NUMBER_OF_FRAMES : 1185
NUMBER_OF_BYTES : 30669
Видео
Идентификатор : 1
Формат : AVC
Формат/Информация : Advanced Video Codec
Профиль формата : High@L4.1
Параметр CABAC формата : Да
Параметр ReFrames формата : 3 кадра
Параметр GOP формата : M=3, N=12
Идентификатор кодека : V_MPEG4/ISO/AVC
Продолжительность : 1 ч. 48 м.
Вид битрейта : Переменный
Максимальный битрейт : 35,0 Мбит/сек
Ширина : 1920 пикселей
Высота : 1080 пикселей
Соотношение сторон : 16:9
Режим частоты кадров : Постоянный
Частота кадров : 23,976 кадра/сек
Стандарт вещания : NTSC
Цветовое пространство : YUV
Субдискретизация насыщенности : 4:2:0
Битовая глубина : 8 бит
Тип развёртки : Прогрессивная
Заголовок : The.Toxic.Avenger.Part.II.1989.COMPLETE.BLURAY-WHiZZ
Default : Нет
Forced : Нет
Цветовой диапазон : Limited
Основные цвета : BT.709
Характеристики трансфера : BT.709
Коэффициенты матрицы : BT.709
Аудио #1
Идентификатор : 2
Формат : AC-3
Формат/Информация : Audio Coding 3
Расширение режима : CM (complete main)
Параметр Endianness формата : Big
Идентификатор кодека : A_AC3
Продолжительность : 1 ч. 48 м.
Вид битрейта : Постоянный
Битрейт : 192 Кбит/сек
Каналы : 2 канала
Расположение каналов : Front: L R
Частота : 48,0 КГц
Метод сжатия : С потерями
Размер потока : 149 Мбайт (1%)
Заголовок : Volodarskiy AC3 2.0 192 kbps
Язык : Russian
Default : Нет
Forced : Нет
Аудио #2
Идентификатор : 3
Формат : AC-3
Формат/Информация : Audio Coding 3
Расширение режима : CM (complete main)
Параметр Endianness формата : Big
Идентификатор кодека : A_AC3
Продолжительность : 1 ч. 48 м.
Вид битрейта : Постоянный
Битрейт : 192 Кбит/сек
Каналы : 2 канала
Расположение каналов : Front: L R
Частота : 48,0 КГц
Метод сжатия : С потерями
Размер потока : 149 Мбайт (1%)
Заголовок : VO AC3 2.0 192 kbps
Язык : Russian
Default : Нет
Forced : Нет
Аудио #3
Идентификатор : 4
Формат : FLAC
Формат/Информация : Free Lossless Audio Codec
Идентификатор кодека : A_FLAC
Продолжительность : 1 ч. 48 м.
Вид битрейта : Переменный
Каналы : 2 канала
Частота : 48,0 КГц
Битовая глубина : 16 бит
Заголовок : Original FLAC 2.0 ~706 kpbs
Библиотека кодирования : libFLAC 1.2.1 (UTC 2007-09-17)
Язык : English
Default : Нет
Forced : Нет
Аудио #4
Идентификатор : 5
Формат : FLAC
Формат/Информация : Free Lossless Audio Codec
Идентификатор кодека : A_FLAC
Продолжительность : 1 ч. 48 м.
Вид битрейта : Переменный
Каналы : 2 канала
Частота : 48,0 КГц
Битовая глубина : 16 бит
Заголовок : Commentary FLAC 2.0 ~538kpbs
Библиотека кодирования : libFLAC 1.2.1 (UTC 2007-09-17)
Язык : English
Default : Нет
Forced : Нет
Текст
Идентификатор : 6
Формат : UTF-8
Идентификатор кодека : S_TEXT/UTF8
Идентификатор кодека/Информация : UTF-8 Plain Text
Язык : English
Default : Нет
Forced : Нет
Меню
00:00:00.000 : en:00:00:00.000
00:17:51.862 : en:00:17:51.862
00:34:17.055 : en:00:34:17.055
00:51:23.872 : en:00:51:23.872
01:08:03.204 : en:01:08:03.204
01:23:07.691 : en:01:23:07.691
01:42:30.811 : en:01:42:30.811
[Профиль] [ЛС]
Показать сообщения:    

Текущее время: Сегодня 00:40

Часовой пояс: GMT



Вы не можете начинать темы
Вы не можете отвечать на сообщения
Вы не можете редактировать свои сообщения
Вы не можете удалять свои сообщения
Вы не можете голосовать в опросах
Вы не можете прикреплять файлы к сообщениям
Вы не можете скачивать файлы