Токсичная колыбельная / Toxic Lullaby (Ральф Кемпер / Ralf Kemper) [2010г, Германия, ужасы, фантастика, боевик, триллер, DVDRip] DVO (DeadSno & den904) + Sub Eng

 
Автор Сообщение

painkiller ®

Стаж: 2 года 3 месяца

Сообщений: 582



Награды: Нет

Торрент-статистика

Создавать темы 14-Авг-2014 13:00

[Цитировать]

Токсичная колыбельная / Toxic Lullaby
Страна: Германия
Жанр: ужасы, фантастика, боевик, триллер
Год выпуска: 2010
Продолжительность: 01:31:49-Перевод: Любительский (двухголосый закадровый) DeadSno & den904
Cубтитры: Английские (вшитые)-Режиссер: Ральф Кемпер / Ralf Kemper
В ролях: Саманта Рихтер, Эва Балкенхол, Ной Хантер, Андреас Пейп, Иво Рене Шарф, Джеррит Рейнеке, Нима Конрадт, Кристиан Шпрехер, Франц Хофманн, Карла фон Хофф-Описание: Элоиз просыпается в странном месте.. вокруг нее мерзость запустения, странные люди в противогазах и полчища зомби, которые пытаются их сожрать. Девушка, в надежде спастись, примыкает к ним... но ей нужно не только выжить, но и вспомнить откуда она, что с ней произошло и такие уж ли хорошие ее новые друзья?-Сэмпл:http://sendfile.su/986446-Качество видео: DVDRip
Формат видео: AVI
Видео: 608x352 (1.73:1), 25 fps, XviD build 50 ~952 kbps avg, 0.18 bit/pixel
Аудио: 48 kHz, AC3 Dolby Digital, 2/0 (L,R) ch, ~192 kbps

MediaInfo

General
Complete name : F:\Мои раздачи 2\Toxic.Lullaby.2010.DVDRip. СПАМ kontarik81.avi
Format : AVI
Format/Info : Audio Video Interleave
File size : 758 MiB
Duration : 1h 31mn
Overall bit rate : 1 154 Kbps
Writing application : VirtualDubMod 1.5.10.2 (build 2542/release)
Writing library : VirtualDubMod build 2542/release
Video
ID : 0
Format : MPEG-4 Visual
Format profile : Advanced Simple@L5
Format settings, BVOP : 1
Format settings, QPel : No
Format settings, GMC : No warppoints
Format settings, Matrix : Custom
Codec ID : XVID
Codec ID/Hint : XviD
Duration : 1h 31mn
Bit rate : 952 Kbps
Width : 608 pixels
Height : 352 pixels
Display aspect ratio : 1.727
Frame rate : 25.000 fps
Color space : YUV
Chroma subsampling : 4:2:0
Bit depth : 8 bits
Scan type : Progressive
Compression mode : Lossy
Bits/(Pixel*Frame) : 0.178
Stream size : 625 MiB (83%)
Writing library : XviD 1.2.1 (UTC 2008-12-04)
Audio
ID : 1
Format : AC-3
Format/Info : Audio Coding 3
Mode extension : CM (complete main)
Format settings, Endianness : Big
Codec ID : 2000
Duration : 1h 31mn
Bit rate mode : Constant
Bit rate : 192 Kbps
Channel(s) : 2 channels
Channel positions : Front: L R
Sampling rate : 48.0 KHz
Bit depth : 16 bits
Compression mode : Lossy
Stream size : 126 MiB (17%)
Alignment : Split accross interleaves
Interleave, duration : 40 ms (1.00 video frame)
Interleave, preload duration : 500 ms
Language : Deutsch

Скриншот c названием фильма

Скриншоты

[Профиль] [ЛС]

Создавать темы 06-Авг-2015 23:14 (спустя 11 месяцев 23 дня)

Топик был перенесен из форума Фильмы до 2014 года в форум Фильмы до 2012 года
sergej644
 
Показать сообщения:    

Текущее время: Сегодня 16:53

Часовой пояс: GMT



Вы не можете начинать темы
Вы не можете отвечать на сообщения
Вы не можете редактировать свои сообщения
Вы не можете удалять свои сообщения
Вы не можете голосовать в опросах
Вы не можете прикреплять файлы к сообщениям
Вы не можете скачивать файлы