Токийский скиталец / Tôkyô nagaremono (1966) BDRemux 1080р | L1

 
Author Message

BOSS ®

Gender:

Longevity: 5 years 7 months

Posts: 14557

Location: ODESSA



: 22 ()

Top Seeder 5 (1) Mega Releaser 4 (1) Top Releaser 3 (1)
Торрент-статистика

Post 14-Oct-2017 09:41

[Quote]

Информация о фильме
Название: Токийский скиталец
Оригинальное название: Tôkyô nagaremono
Год выхода: 1966
Жанр: боевик, драма, криминал
Режиссер: Сэйдзюн Судзуки
В ролях: Тэцуя Ватари, Тиэко Мацубара, Тамио Кавати, Хидэаки Нитани, Эйдзи Го, Тотико Хамакава, Цуёси Ёсида, Исао Тамагава, Эимэи Эсуми, Рюдзи Кита, Митио Хино, Сюнтаро Тамамура, Хироси Мидорикава, Хироси Тё, Акира Хисамацу, Синдзо Сибата
Описание: В этом джазово-гангстерском фильме исправляющийся убийца «Феникс» Тэтцу, в ожидании решения внезапно возникших проблем, скитается по Японии, пока в одном из притонов он окончательно не решает возвратиться в Токио и решить проблемы полагаясь только на себя.

Страна: Япония
Продолжительность: 01:22:53
Перевод: Любительский (одноголосый закадровый) Олег Воротилин по субтитрам wasp238
Субтитры: русские wasp238, английские
Оригинальная аудиодорожка: японский
Файл
Качество: BDRemux 1080р
Видео: AVC / 1920x1080 / 16:9 / 23.976 fps / 34866 Kbps / High@L4.1
Аудио 1: Rus / AC3 / 48.0 KHz / 1.0 / 192 kbps / VO / Олег Воротилин
Аудио 2: Rus / FLAC / 48.0 KHz / 1.0 / 616 kbps / 24 bit / VO / О. Воротилин
Аудио 3: Jap / FLAC / 48.0 KHz / 1.0 / 613 kbps / 24 bit

Скриншоты

MediaInfo

Общее
Уникальный идентификатор : 195043994460388016428532877443425195464 (0x92BC1B607275188F94DEBAF34D5D55C8)
Полное имя : Tokyo.Drifter.1966.Criterion.Collection.BDRemux.1080p.mkv
Формат : Matroska
Версия формата : Version 4 / Version 2
Размер файла : 21,0 Гбайт
Продолжительность : 1 ч. 22 м.
Режим общего битрейта : Переменный
Общий поток : 36,3 Мбит/сек
Название фильма : Tokyo.Drifter.1966.Criterion.Collection.BDRemux.1080p-porvaliparus
Дата кодирования : UTC 2017-10-14 01:52:32
Программа кодирования : mkvmerge v16.0.0 ('Protest') 64-bit
Библиотека кодирования : libebml v1.3.5 + libmatroska v1.4.8
Видео
Идентификатор : 1
Формат : AVC
Формат/Информация : Advanced Video Codec
Профиль формата : High@L4.1
Настройки формата : CABAC / 4 Ref Frames
Параметр CABAC формата : Да
Параметр RefFrames формата : 4 кадра
Идентификатор кодека : V_MPEG4/ISO/AVC
Продолжительность : 1 ч. 22 м.
Вид битрейта : Переменный
Битрейт : 34,9 Мбит/сек
Максимальный битрейт : 37,0 Мбит/сек
Ширина : 1920 пикселей
Высота : 1080 пикселей
Соотношение сторон : 16:9
Режим частоты кадров : Постоянный
Частота кадров : 23,976 (24000/1001) кадра/сек
Цветовое пространство : YUV
Субдискретизация насыщенности : 4:2:0
Битовая глубина : 8 бит
Тип развёртки : Прогрессивная
Бит/(Пиксели*Кадры) : 0.701
Размер потока : 20,2 Гбайт (96%)
Заголовок : Tokyo.Drifter.1966.Criterion.Collection.BDRemux.1080p
Default : Да
Forced : Нет
Аудио #1
Идентификатор : 2
Формат : AC-3
Формат/Информация : Audio Coding 3
Параметр Endianness формата : Big
Идентификатор кодека : A_AC3
Продолжительность : 1 ч. 22 м.
Вид битрейта : Постоянный
Битрейт : 192 Кбит/сек
Каналы : 1 канал
Расположение каналов : Front: C
Частота : 48,0 КГц
Частота кадров : 31,250 кадров/сек (1536 SPF)
Битовая глубина : 16 бит
Метод сжатия : С потерями
Размер потока : 114 Мбайт (1%)
Заголовок : VO [О. Воротилин]
Язык : Russian
Default : Да
Forced : Нет
Аудио #2
Идентификатор : 3
Формат : FLAC
Формат/Информация : Free Lossless Audio Codec
Идентификатор кодека : A_FLAC
Продолжительность : 1 ч. 22 м.
Вид битрейта : Переменный
Битрейт : 616 Кбит/сек
Каналы : 1 канал
Расположение каналов : Front: C
Частота : 48,0 КГц
Частота кадров : 11,719 кадров/сек (4096 SPF)
Битовая глубина : 24 бит
Размер потока : 365 Мбайт (2%)
Заголовок : VO [О. Воротилин]
Библиотека кодирования : libFLAC 20080709 (UTC 2008-07-09)
Язык : Russian
Default : Нет
Forced : Нет
Аудио #3
Идентификатор : 4
Формат : FLAC
Формат/Информация : Free Lossless Audio Codec
Идентификатор кодека : A_FLAC
Продолжительность : 1 ч. 22 м.
Вид битрейта : Переменный
Битрейт : 613 Кбит/сек
Каналы : 1 канал
Расположение каналов : Front: C
Частота : 48,0 КГц
Частота кадров : 11,719 кадров/сек (4096 SPF)
Битовая глубина : 24 бит
Размер потока : 363 Мбайт (2%)
Библиотека кодирования : libFLAC 20080709 (UTC 2008-07-09)
Язык : Japanese
Default : Нет
Forced : Нет
Текст #1
Идентификатор : 5
Формат : UTF-8
Идентификатор кодека : S_TEXT/UTF8
Идентификатор кодека/Информация : UTF-8 Plain Text
Продолжительность : 1 ч. 22 м.
Битрейт : 45 бит/сек
ElementCount : 464
Размер потока : 27,3 Кбайт (0%)
Заголовок : [wasp238]
Язык : Russian
Default : Нет
Forced : Нет
Текст #2
Идентификатор : 6
Формат : UTF-8
Идентификатор кодека : S_TEXT/UTF8
Идентификатор кодека/Информация : UTF-8 Plain Text
Продолжительность : 1 ч. 22 м.
Битрейт : 31 бит/сек
ElementCount : 679
Размер потока : 19,2 Кбайт (0%)
Язык : English
Default : Нет
Forced : Нет
Меню
00:00:00.000 : en:00:00:00.000
00:05:47.472 : en:00:05:47.472
00:11:34.944 : en:00:11:34.944
00:16:08.217 : en:00:16:08.217
00:22:21.173 : en:00:22:21.173
00:28:44.681 : en:00:28:44.681
00:33:42.854 : en:00:33:42.854
00:39:38.209 : en:00:39:38.209
00:41:43.167 : en:00:41:43.167
00:47:13.497 : en:00:47:13.497
00:49:30.467 : en:00:49:30.467
00:54:55.042 : en:00:54:55.042
00:57:34.201 : en:00:57:34.201
01:03:34.853 : en:01:03:34.853
01:06:41.873 : en:01:06:41.873
01:10:26.556 : en:01:10:26.556
01:14:53.489 : en:01:14:53.489
[Profile] [PM]
Кто просматривает тему:

Forum Topic Author Size
Фильмы (HD Rips | 720p, 1080p) Атака Титанов. Фильм первый: Жестокий мир / Shingeki no kyojin: Attack on Titan (2015) BDRip 720p | iTunes BOSS 4.14 GB
Фильмы 2015 года Атака Титанов. Фильм первый: Жестокий мир / Shingeki no kyojin: Attack on Titan (2015) HDRip | iTunes BOSS 1.45 GB
Фильмы (HD Rips | 720p, 1080p) Атака Титанов. Фильм первый: Жестокий мир / Shingeki no kyojin: Attack on Titan (2015) WEB-DL 1080p | iTunes BOSS 3.27 GB
Фильмы (HD Rips | 720p, 1080p) Атака Титанов. Фильм первый: Жестокий мир / Shingeki no kyojin: Attack on Titan (2015) WEB-DL 720p | iTunes BOSS 2.79 GB
Фильмы 2015 года Атака Титанов. Фильм первый: Жестокий мир / Shingeki no kyojin: Attack on Titan (2015) WEB-DLRip | iTunes BOSS 699 MB
R.G.TorrentFilm Video Атака Титанов. Фильм первый: Жестокий мир / Shingeki no kyojin: Attack on Titan (Синдзи Хигути / Shinji Higuchi) [2015 г., Фэнтези, боевик, приключения, DVDScr] DVO (DeadSno & Den904) Один 777 755 MB
Фильмы 2015 года Атака Титанов. Фильм первый: Жестокий мир / Shingeki no kyojin: Attack on Titan (Синдзи Хигути) [2015, Ужасы, фэнтези, боевик, драма, приключения] WEB-DLRip | iTunes BOSS 1.37 GB
Отечественные cериалы Жестокий бизнес (Дмитрий Кузьмин)[01-12 из 12] [2008, криминал, боевик, DVDRip] sergej644 8.23 GB
Display posts from previous:    

The time now is: Today 00:22

All times are GMT



You cannot post new topics in this forum
You cannot reply to topics in this forum
You cannot edit your posts in this forum
You cannot delete your posts in this forum
You cannot vote in polls in this forum
You cannot attach files in this forum
You cannot download files in this forum