Токийская невеста / Tokyo Fiancée (2014) ВDRip 1080р | iTunes

 
Автор Сообщение

BOSS ®

Пол:

Стаж: 2 года 1 месяц

Сообщений: 3732

Откуда: ODESSA



Награды: 20 (Подробнее)

Top Keeper 1 (Количество: 1) Mega Releaser 3 (Количество: 1) Top Seeder 2 (Количество: 1)
Торрент-статистика

Создавать темы 21-Сен-2015 06:45

[Цитировать]

Название: Токийская невеста
Оригинальное название: Tokyo Fiancée
Год выпуска: 2014
Жанр: Комедия, мелодрама
Выпущено: Франция, Канада, Бельгия / O'Brother Distribution, Versus Production
Режиссер: Стефан Либерски
В ролях: Полин Этьен, Тайчи Иноэ, Жюли ЛеБретон, Элис де Ланкесэ, Акими Ота, Хироки Кагеяма, Токио Ёкои, Хироми Асаи, Синносуке Касахара, Масаки Ватанабэ
О фильме: Амели полна надежд начать новую жизнь — она едет в Японию, страну своего детства, чтобы найти вдохновение и написать книгу. На новом месте девушка дает объявление о частных уроках французского языка, и ее первым и единственным учеником становится Ринри — очаровательный молодой человек, с которым они вскоре сблизятся. В трудностях перевода, в неловких вечеринках и спонтанных путешествиях Амели откроет для себя невиданную Японию и научится любить.

Качество: BDRip 1080p
Видео: MPEG-4 AVC, 9042 Кбит/c, 1920x816
Аудио: Русский (AC3, 6 ch, 384 Кбит/с), французский (AC3, 6 ch, 640 Кбит/с)
Продолжительность: 01:41:39
Перевод: Профессиональный (полное дублирование) [iTunes]
Семпл

Скриншоты

MediaInfo

General
Unique ID : 204404525747581580100655219301328154620 (0x99C6E133666FA607B2BC7FEA0C34EFFC)
Complete name : D:ВидеоU3koGla3aya.Ne8eSta.2014.D.BDRip.1080p.mkv
Format : Matroska
Format version : Version 4 / Version 2
File size : 7.29 GiB
Duration : 1h 41mn
Overall bit rate : 10.3 Mbps
Encoded date : UTC 2015-09-12 08:26:56
Writing application : mkvmerge v8.3.0 ('Over the Horizon') 64bit
Writing library : libebml v1.3.1 + libmatroska v1.4.2
DURATION : 01:41:36.768000000
NUMBER_OF_FRAMES : 190524
NUMBER_OF_BYTES : 292644864
_STATISTICS_WRITING_APP : mkvmerge v8.3.0 ('Over the Horizon') 64bit
_STATISTICS_WRITING_DATE_UTC : 2015-09-12 08:26:56
_STATISTICS_TAGS : BPS DURATION NUMBER_OF_FRAMES NUMBER_OF_BYTES
Video
ID : 1
Format : AVC
Format/Info : Advanced Video Codec
Format profile : High@L4.1
Format settings, CABAC : Yes
Format settings, ReFrames : 4 frames
Codec ID : V_MPEG4/ISO/AVC
Duration : 1h 41mn
Bit rate : 9 042 Kbps
Width : 1 920 pixels
Height : 816 pixels
Display aspect ratio : 2.35:1
Frame rate mode : Constant
Frame rate : 24.000 fps
Color space : YUV
Chroma subsampling : 4:2:0
Bit depth : 8 bits
Scan type : Progressive
Bits/(Pixel*Frame) : 0.240
Stream size : 6.42 GiB (88%)
Writing library : x264 core 142 r2431+42 c69a006 tMod [8-bit@4:2:0 X86_64]
Encoding settings : cabac=1 / ref=4 / deblock=1:-3:-3 / analyse=0x3:0x113 / me=umh / subme=11 / psy=1 / fade_compensate=0.00 / psy_rd=1.00:0.05 / mixed_ref=1 / me_range=48 / chroma_me=1 / trellis=2 / 8x8dct=1 / cqm=0 / deadzone=21,11 / fast_pskip=0 / chroma_qp_offset=-2 / threads=12 / lookahead_threads=2 / sliced_threads=0 / nr=0 / decimate=1 / interlaced=0 / bluray_compat=0 / constrained_intra=0 / fgo=0 / bframes=8 / b_pyramid=2 / b_adapt=2 / b_bias=0 / direct=3 / weightb=1 / open_gop=0 / weightp=2 / keyint=250 / keyint_min=24 / scenecut=40 / intra_refresh=0 / rc_lookahead=40 / rc=crf / mbtree=0 / crf=19.5000 / qcomp=0.60 / qpmin=0:0:0 / qpmax=69:69:69 / qpstep=4 / vbv_maxrate=40000 / vbv_bufsize=30000 / crf_max=0.0 / nal_hrd=none / filler=0 / ip_ratio=1.40 / pb_ratio=1.30 / aq=3:1.00 / aq-sensitivity=10.00 / aq-factor=1.00:1.00:1.00 / aq2=0 / aq3=0
Language : English
Default : Yes
Forced : No
Matrix coefficients : BT.709
DURATION : 01:41:39.459000000
NUMBER_OF_FRAMES : 146387
NUMBER_OF_BYTES : 7048644557
_STATISTICS_WRITING_APP : mkvmerge v8.3.0 ('Over the Horizon') 64bit
_STATISTICS_WRITING_DATE_UTC : 2015-09-12 08:26:56
_STATISTICS_TAGS : BPS DURATION NUMBER_OF_FRAMES NUMBER_OF_BYTES
Audio #1
ID : 2
Format : AC-3
Format/Info : Audio Coding 3
Mode extension : CM (complete main)
Format settings, Endianness : Big
Codec ID : A_AC3
Duration : 1h 41mn
Bit rate mode : Constant
Bit rate : 384 Kbps
Channel(s) : 6 channels
Channel positions : Front: L C R, Side: L R, LFE
Sampling rate : 48.0 KHz
Bit depth : 16 bits
Compression mode : Lossy
Stream size : 279 MiB (4%)
Language : Russian
Default : Yes
Forced : No
Audio #2
ID : 3
Format : AC-3
Format/Info : Audio Coding 3
Mode extension : CM (complete main)
Format settings, Endianness : Big
Codec ID : A_AC3
Duration : 1h 41mn
Bit rate mode : Constant
Bit rate : 640 Kbps
Channel(s) : 6 channels
Channel positions : Front: L C R, Side: L R, LFE
Sampling rate : 48.0 KHz
Bit depth : 16 bits
Compression mode : Lossy
Stream size : 465 MiB (6%)
Language : French
Default : No
Forced : No
[Профиль] [ЛС]
Кто просматривает тему:

Форум Тема Автор Размер
Фильмы (HD Rips | 720p, 1080p) Атака Титанов. Фильм первый: Жестокий мир / Shingeki no kyojin: Attack on Titan (2015) BDRip 720p | iTunes BOSS 4.14 GB
Фильмы 2015 года Атака Титанов. Фильм первый: Жестокий мир / Shingeki no kyojin: Attack on Titan (2015) HDRip | iTunes BOSS 1.45 GB
Фильмы (HD Rips | 720p, 1080p) Атака Титанов. Фильм первый: Жестокий мир / Shingeki no kyojin: Attack on Titan (2015) WEB-DL 1080p | iTunes BOSS 3.27 GB
Фильмы (HD Rips | 720p, 1080p) Атака Титанов. Фильм первый: Жестокий мир / Shingeki no kyojin: Attack on Titan (2015) WEB-DL 720p | iTunes BOSS 2.79 GB
Фильмы 2015 года Атака Титанов. Фильм первый: Жестокий мир / Shingeki no kyojin: Attack on Titan (2015) WEB-DLRip | iTunes BOSS 699 MB
R.G.TorrentFilm Video Атака Титанов. Фильм первый: Жестокий мир / Shingeki no kyojin: Attack on Titan (Синдзи Хигути / Shinji Higuchi) [2015 г., Фэнтези, боевик, приключения, DVDScr] DVO (DeadSno & Den904) Один 777 755 MB
Фильмы 2015 года Атака Титанов. Фильм первый: Жестокий мир / Shingeki no kyojin: Attack on Titan (Синдзи Хигути) [2015, Ужасы, фэнтези, боевик, драма, приключения] WEB-DLRip | iTunes BOSS 1.37 GB
Отечественные cериалы Жестокий бизнес (Дмитрий Кузьмин)[01-12 из 12] [2008, криминал, боевик, DVDRip] sergej644 8.23 GB
Показать сообщения:    

Текущее время: Сегодня 16:21

Часовой пояс: GMT



Вы не можете начинать темы
Вы не можете отвечать на сообщения
Вы не можете редактировать свои сообщения
Вы не можете удалять свои сообщения
Вы не можете голосовать в опросах
Вы не можете прикреплять файлы к сообщениям
Вы не можете скачивать файлы