Тихоокеанский рубеж 3Д / Pacific Rim 3D (Гильермо дель Торо / Guillermo del Toro) [2013, США, фантастика, боевик, приключения, BDRip-AVC] Dub (CEE) + 2xAVO (Ю.Сербин, Л.Володарский) + Ukr (Dub) + Original (Eng) + Sub (Rus, Ukr, Eng) [Half OverU

 
Автор Сообщение

TorrentFilm ®

Пол:

Стаж: 2 года

Сообщений: 7741



Награды: Нет

Торрент-статистика

Создавать темы 01-Янв-2016 00:23

[Цитировать]

Тихоокеанский рубеж / Pacific Rim«Чтобы сражаться с монстрами, мы создали монстров»- Страна: США
Жанр: фантастика, боевик, приключения
Год выпуска: 2013
Продолжительность: 02:11:14-Перевод №1: Профессиональный (дублированный) Blu-ray CEE
Перевод №2: Профессиональный (дублированный) Ukrainian Blu-ray CEE
Перевод №3: Авторский (одноголосый закадровый) Ю.Сербин
Перевод №4: Авторский (одноголосый закадровый) Л.Володарский
Оригинальная аудиодорога №1: English
Оригинальная аудиодорога №2: English Commentary By Guillermo Del Toro
Cубтитры: Russian (forced iTunes+full iTunes), Ukrainian (forced iTunes+full iTunes), English (full+full SDH+full SDH-COLORED) - (*.srt)
Навигация по главам: Присутствует - (15 глав)-Режиссер: Гильермо дель Торо / Guillermo del Toro
В ролях: Чарли Ханнэм, Идрис Эльба, Ринко Кикути, Роберт Казински, Макс Мартини, Чарли Дэй, Берн Горман, Клифтон Коллинз мл., Рон Перлман, Диего Клаттенхофф-Описание:
Когда из морских глубин поднялись легионы чудовищ, известных как Кайдзу, началась война, которой суждено было забрать миллионы жизней и свести «человеческие ресурсы» почти к нулю всего за несколько лет. Чтобы сражаться с пришельцами, было создано специальное оружие: огромные роботы, названные Джегерами, они управлялись одновременно двумя пилотами, чьи сознания соединены с помощью нейронной связи. Но даже Джегеры оказываются почти бессильны перед лицом безжалостных Кайдзу. На грани поражения у защитников человечества нет выбора, кроме как обратиться к двум весьма сомнительным героям — никому не нужному бывшему пилоту и неопытному стажеру — которые объединились, чтобы повести в бой некогда легендарного, но сейчас устаревшего Джегера. Вместе они оказываются единственной надеждой человечества, последним препятствием перед надвигающимся апокалипсисом.
-
Download sample-Качество видео: BDRip-AVC | исх. Pacific.Rim.3D.2013.COMPLETE.BLURAY-PCH
Формат видео: MKV
Видео кодек: x264
Аудио кодек: AC3, DTS
Формат 3D: Half OverUnder / Вертикальная анаморфная стереопара
Порядок ракурсов: левый ракурс первый-Видео: 1920x1080 at 23.976 fps, x264@L4.1, 2pass, ~19473 kbps avg
Аудио №1: 48 kHz, AC3, 3/2 (L,C,R,l,r) + LFE ch, ~640.00 kbps avg | Профессиональный (дублированный) Blu-ray CEE
Аудио №2: 48 kHz, AC3, 3/2 (L,C,R,l,r) + LFE ch, ~640.00 kbps avg | Профессиональный (дублированный) Ukrainian Blu-ray CEE
Аудио №3: 48 kHz, DTS, 3/2 (L,C,R,l,r) + LFE ch, ~1536.00 kbps avg | Авторский (одноголосый закадровый) Ю.Сербин
Аудио №4: 48 kHz, DTS, 3/2 (L,C,R,l,r) + LFE ch, ~1536.00 kbps avg | Авторский (одноголосый закадровый) Л.Володарский
Аудио №5: 48 kHz, DTS, 3/2 (L,C,R,l,r) + LFE ch, ~1536.00 kbps avg | English
Аудио №6: 48 kHz, AC3, 2/0 (L,R) ch, ~192.00 kbps avg | English Commentary By Guillermo Del Toro-

Notes

Сохранены оригинальные чаптеры как на Blu-ray.
Исходный WEB-DL куплен в рамках сервиса "Копилка".
Перевод Ю.Сербина выполнен в рамках сервиса "Озвучивание". Спонсоры: tambov68, Luka69, Naumec, ultrajeka, Brown, prostuda, Ex1l, alexxoid, ankor, Nostradamo, klloo, ZeRoNe, Rushmore, denismgn1987, Loki1982, Bonchik, sashka2121, SoulRepsol, xerman13, Andresoff, unbuba, anvic, Dess_4yBAK, tor30515, rivaspb, Atom, wildhealer, dr_akula68, sasha7733, A3B5. Работа над дорогой: dsk71. Всем СПАСИБО!
Спасибо Nadoelo за дорожку с переводом Леонида Володарского!
Fix OCR, italics, overlapping, etc... @ Dorothea.
Рип от HDMaNiAcS

MediaInfo

General
Unique ID : 251841484054158170380863221314426279828 (0xBD76E7D154A61B5CB07FBE35DD9C9794)
Complete name : D:\Фильмы\Pacific.Rim.2013.1080p.3D.BluRay.Half-OU.DTS.3xRus.Ukr.2xEng.HDCLUB.mkv
Format : Matroska
Format version : Version 2
File size : 23.4 GiB
Duration : 2h 11mn
Overall bit rate : 25.5 Mbps
Movie name : Pacific Rim (2013) [3D] - Release for HDCLUB
Encoded date : UTC 2013-12-08 21:27:19
Writing application : mkvmerge v3.4.0 ('Rapunzel') built on May 15 2010 09:38:20
Writing library : libebml v0.8.0 + libmatroska v0.9.0
Video
ID : 1
Format : AVC
Format/Info : Advanced Video Codec
Format profile : High@L4.1
Format settings, CABAC : Yes
Format settings, ReFrames : 4 frames
Codec ID : V_MPEG4/ISO/AVC
Duration : 2h 11mn
Bit rate : 19.5 Mbps
Width : 1 920 pixels
Height : 1 080 pixels
Display aspect ratio : 16:9
Frame rate mode : Constant
Frame rate : 23.976 fps
Color space : YUV
Chroma subsampling : 4:2:0
Bit depth : 8 bits
Scan type : Progressive
Bits/(Pixel*Frame) : 0.392
Stream size : 17.4 GiB (74%)
Title : Pacific Rim (2013) [3D] - Release for HDCLUB
Writing library : x264 core 133 r2334 a3ac64b
Encoding settings : cabac=1 / ref=4 / deblock=1:-3:-3 / analyse=0x3:0x113 / me=esa / subme=10 / psy=1 / psy_rd=1.05:0.00 / mixed_ref=1 / me_range=24 / chroma_me=1 / trellis=2 / 8x8dct=1 / cqm=0 / deadzone=21,11 / fast_pskip=0 / chroma_qp_offset=-2 / threads=12 / lookahead_threads=2 / sliced_threads=0 / nr=0 / decimate=0 / interlaced=0 / bluray_compat=0 / constrained_intra=0 / bframes=8 / b_pyramid=2 / b_adapt=2 / b_bias=0 / direct=3 / weightb=1 / open_gop=0 / weightp=2 / keyint=250 / keyint_min=23 / scenecut=40 / intra_refresh=0 / rc_lookahead=40 / rc=2pass / mbtree=0 / bitrate=19500 / ratetol=1.0 / qcomp=0.60 / qpmin=10 / qpmax=69 / qpstep=4 / cplxblur=20.0 / qblur=0.5 / vbv_maxrate=40000 / vbv_bufsize=30000 / nal_hrd=none / frame-packing=4 / ip_ratio=1.35 / pb_ratio=1.10 / aq=1:0.80
Language : English
Default : Yes
Forced : No
Audio #1
ID : 2
Format : AC-3
Format/Info : Audio Coding 3
Mode extension : CM (complete main)
Format settings, Endianness : Big
Codec ID : A_AC3
Duration : 2h 11mn
Bit rate mode : Constant
Bit rate : 640 Kbps
Channel count : 6 channels
Channel positions : Front: L C R, Side: L R, LFE
Sampling rate : 48.0 KHz
Bit depth : 16 bits
Compression mode : Lossy
Stream size : 601 MiB (3%)
Title : AC3 5.1 @ 640 kbps - DUB, Blu-ray CEE
Language : Russian
Default : Yes
Forced : No
Audio #2
ID : 3
Format : AC-3
Format/Info : Audio Coding 3
Mode extension : CM (complete main)
Format settings, Endianness : Big
Codec ID : A_AC3
Duration : 2h 11mn
Bit rate mode : Constant
Bit rate : 640 Kbps
Channel count : 6 channels
Channel positions : Front: L C R, Side: L R, LFE
Sampling rate : 48.0 KHz
Bit depth : 16 bits
Compression mode : Lossy
Stream size : 601 MiB (3%)
Title : AC3 5.1 @ 640 kbps - DUB, Blu-ray CEE
Language : Ukrainian
Default : No
Forced : No
Audio #3
ID : 4
Format : DTS
Format/Info : Digital Theater Systems
Mode : 16
Format settings, Endianness : Big
Codec ID : A_DTS
Duration : 2h 11mn
Bit rate mode : Constant
Bit rate : 1 509 Kbps
Channel count : 6 channels
Channel positions : Front: L C R, Side: L R, LFE
Sampling rate : 48.0 KHz
Bit depth : 24 bits
Compression mode : Lossy
Stream size : 1.38 GiB (6%)
Title : DTS 5.1 @ 1536 kbps - AVO, Y.Serbin
Language : Russian
Default : No
Forced : No
Audio #4
ID : 5
Format : DTS
Format/Info : Digital Theater Systems
Mode : 16
Format settings, Endianness : Big
Codec ID : A_DTS
Duration : 2h 11mn
Bit rate mode : Constant
Bit rate : 1 509 Kbps
Channel count : 6 channels
Channel positions : Front: L C R, Side: L R, LFE
Sampling rate : 48.0 KHz
Bit depth : 24 bits
Compression mode : Lossy
Stream size : 1.38 GiB (6%)
Title : DTS 5.1 @ 1536 kbps - AVO, L.Volodarsky
Language : Russian
Default : No
Forced : No
Audio #5
ID : 6
Format : DTS
Format/Info : Digital Theater Systems
Mode : 16
Format settings, Endianness : Big
Codec ID : A_DTS
Duration : 2h 11mn
Bit rate mode : Constant
Bit rate : 1 509 Kbps
Channel count : 6 channels
Channel positions : Front: L C R, Side: L R, LFE
Sampling rate : 48.0 KHz
Bit depth : 24 bits
Compression mode : Lossy
Delay relative to video : 11ms
Stream size : 1.38 GiB (6%)
Title : DTS 5.1 @ 1536 kbps
Language : English
Default : No
Forced : No
Audio #6
ID : 7
Format : AC-3
Format/Info : Audio Coding 3
Format profile : Dolby Digital
Mode extension : CM (complete main)
Format settings, Endianness : Big
Codec ID : A_AC3
Duration : 2h 11mn
Bit rate mode : Constant
Bit rate : 192 Kbps
Channel count : 2 channels
Channel positions : Front: L R
Sampling rate : 48.0 KHz
Bit depth : 16 bits
Compression mode : Lossy
Stream size : 180 MiB (1%)
Title : AC3 2.0 @ 192 kbps - Commentary By Guillermo Del Toro
Language : English
Default : No
Forced : No
Text #1
ID : 8
Format : UTF-8
Codec ID : S_TEXT/UTF8
Codec ID/Info : UTF-8 Plain Text
Title : Forced, iTunes
Language : Russian
Default : Yes
Forced : No
Text #2
ID : 9
Format : UTF-8
Codec ID : S_TEXT/UTF8
Codec ID/Info : UTF-8 Plain Text
Title : iTunes
Language : Russian
Default : No
Forced : No
Text #3
ID : 10
Format : UTF-8
Codec ID : S_TEXT/UTF8
Codec ID/Info : UTF-8 Plain Text
Title : Forced, iTunes
Language : Ukrainian
Default : No
Forced : No
Text #4
ID : 11
Format : UTF-8
Codec ID : S_TEXT/UTF8
Codec ID/Info : UTF-8 Plain Text
Title : iTunes
Language : Ukrainian
Default : No
Forced : No
Text #5
ID : 12
Format : UTF-8
Codec ID : S_TEXT/UTF8
Codec ID/Info : UTF-8 Plain Text
Language : English
Default : No
Forced : No
Text #6
ID : 13
Format : UTF-8
Codec ID : S_TEXT/UTF8
Codec ID/Info : UTF-8 Plain Text
Title : SDH
Language : English
Default : No
Forced : No
Text #7
ID : 14
Format : UTF-8
Codec ID : S_TEXT/UTF8
Codec ID/Info : UTF-8 Plain Text
Title : SDH-COLORED
Language : English
Default : No
Forced : No
Menu
00:00:00.000 : en:00:00:00.000
00:09:09.132 : en:00:09:09.132
00:18:35.823 : en:00:18:35.823
00:23:04.341 : en:00:23:04.341
00:33:00.395 : en:00:33:00.395
00:42:44.896 : en:00:42:44.896
00:50:01.665 : en:00:50:01.665
01:01:09.666 : en:01:01:09.666
01:14:45.106 : en:01:14:45.106
01:22:21.311 : en:01:22:21.311
01:32:09.941 : en:01:32:09.941
01:41:55.609 : en:01:41:55.609
01:51:37.858 : en:01:51:37.858
01:59:21.029 : en:01:59:21.029
02:02:17.830 : en:02:02:17.830

Screenshots

[Профиль] [ЛС]
Показать сообщения:    

Текущее время: Сегодня 14:07

Часовой пояс: GMT



Вы не можете начинать темы
Вы не можете отвечать на сообщения
Вы не можете редактировать свои сообщения
Вы не можете удалять свои сообщения
Вы не можете голосовать в опросах
Вы не можете прикреплять файлы к сообщениям
Вы не можете скачивать файлы