Тихоокеанский рубеж / Pacific Rim (2013) BDRip-HEVC 1080p | D

 
Автор Сообщение

BOSS ®

Пол:

Стаж: 3 года

Сообщений: 7568

Откуда: ODESSA



Награды: 22 (Подробнее)

Top Keeper 4 (Количество: 1) Top Seeder 2 (Количество: 1) Mega Seeder 2 (Количество: 1)
Торрент-статистика

Создавать темы 02-Авг-2017 11:16

[Цитировать]

Информация о фильме
Название Тихоокеанский рубеж
Оригинальное название: Pacific Rim
Год выхода: 2013
Жанр: фантастика, боевик, приключения
Режиссер: Гильермо дель Торо
В ролях: Чарли Ханнэм, Идрис Эльба, Ринко Кикути, Роберт Казински, Макс Мартини, Чарли Дэй, Берн Горман, Клифтон Коллинз мл., Рон Перлман, Диего Клаттенхофф
О фильме:
Когда из морских глубин поднялись легионы чудовищ, известных как кайдзю, началась война, которой суждено было забрать миллионы жизней и свести «человеческие ресурсы» почти к нулю всего за несколько лет. Чтобы сражаться с пришельцами, было создано специальное оружие: огромные роботы, названные егерями, они управлялись одновременно двумя пилотами, чьи сознания соединены с помощью нейронной связи. Но даже егеря оказываются почти бессильны перед лицом безжалостных кайдзю. На грани поражения у защитников человечества нет выбора, кроме как обратиться к двум весьма сомнительным героям — никому не нужному бывшему пилоту и неопытному стажеру — которые объединились, чтобы повести в бой некогда легендарного, но сейчас устаревшего егеря. Вместе они оказываются единственной надеждой человечества, последним препятствием перед надвигающимся апокалипсисом.

Страна: США
Продолжительность: 02:11:16
Перевод: Дублированный
Файл
Кодек: HEVC 10bit
Качество: BDRip 1080p
Видео: 1920x1080 at 23.976 fps, x265@Main 10@L4@Main, crf, ~9696 kbps avg
Звук:
1: Russian: 48.0 KHz, AC-3, 3/2 (L,C,R,l,r) + LFE ch, ~640 Kbps avg | Dub
2: English: 48.0 KHz, AAC, 3/2 (L,C,R,l,r) + LFE ch, ~480 Kbps avg | Original
Субтитры: Russian (Forced), Russian (Full), English (Full)

Скриншоты

MediaInfo

General
Unique ID : 234920541179702651463260923518943142635 (0xB0BC0CEC520B33AEA3DF4876B0E2A2EB)
Complete name : Тихоокеанский рубеж.2013.HEVC.mkv
Format : Matroska
Format version : Version 4 / Version 2
File size : 9.92 GiB
Duration : 2h 11mn
Overall bit rate : 10.8 Mbps
Movie name : Pacific Rim
Encoded date : UTC 2017-08-02 09:36:44
Writing application : mkvmerge v9.5.0 ('Quiet Fire') 64bit
Writing library : libebml v1.3.4 + libmatroska v1.4.5
Video
ID : 1
Format : HEVC
Format/Info : High Efficiency Video Coding
Format profile : Main 10@L4@Main
Codec ID : V_MPEGH/ISO/HEVC
Duration : 2h 11mn
Bit rate : 9 697 Kbps
Width : 1 920 pixels
Height : 1 080 pixels
Display aspect ratio : 16:9
Frame rate mode : Constant
Frame rate : 23.976 (24000/1001) fps
Color space : YUV
Chroma subsampling : 4:2:0
Bit depth : 10 bits
Bits/(Pixel*Frame) : 0.195
Stream size : 8.89 GiB (90%)
Title : HEVC
Writing library : x265 2.3+27-7e137e3ae083:[Windows][GCC 5.3.1][64 bit] 10bit
Encoding settings : cpuid=1173503 / frame-threads=2 / numa-pools=4 / wpp / no-pmode / no-pme / no-psnr / no-ssim / log-level=2 / input-csp=1 / input-res=1920x1080 / interlace=0 / total-frames=0 / level-idc=0 / high-tier=1 / uhd-bd=0 / ref=4 / no-allow-non-conformance / no-repeat-headers / annexb / no-aud / no-hrd / info / hash=0 / no-temporal-layers / open-gop / min-keyint=23 / keyint=250 / bframes=10 / b-adapt=2 / b-pyramid / bframe-bias=0 / rc-lookahead=60 / lookahead-slices=0 / scenecut=40 / no-intra-refresh / ctu=64 / min-cu-size=8 / no-rect / no-amp / max-tu-size=32 / tu-inter-depth=4 / tu-intra-depth=4 / limit-tu=4 / rdoq-level=2 / dynamic-rd=0.00 / signhide / no-tskip / nr-intra=0 / nr-inter=0 / no-constrained-intra / strong-intra-smoothing / max-merge=3 / limit-refs=3 / no-limit-modes / me=3 / subme=5 / merange=57 / temporal-mvp / weightp / weightb / no-analyze-src-pics / deblock=-3:-3 / no-sao / no-sao-non-deblock / rd=4 / no-early-skip / rskip / no-fast-intra / no-tskip-fast / no-cu-lossless / b-intra / rdpenalty=0 / psy-rd=1.00 / psy-rdoq=1.00 / no-rd-refine / analysis-mode=0 / no-lossless / cbqpoffs=0 / crqpoffs=0 / rc=crf / crf=18.0 / qcomp=0.90 / qpstep=4 / stats-write=0 / stats-read=0 / ipratio=1.40 / pbratio=1.30 / aq-mode=1 / aq-strength=0.50 / cutree / zone-count=0 / no-strict-cbr / qg-size=32 / no-rc-grain / qpmax=69 / qpmin=0 / sar=0 / overscan=0 / videoformat=5 / range=0 / colorprim=2 / transfer=2 / colormatrix=2 / chromaloc=0 / display-window=0 / max-cll=0,0 / min-luma=0 / max-luma=1023 / log2-max-poc-lsb=8 / vui-timing-info / vui-hrd-info / slices=1 / opt-qp-pps / opt-ref-list-length-pps / no-multi-pass-opt-rps / scenecut-bias=0.05 / no-opt-cu-delta-qp / no-aq-motion / no-hdr / no-hdr-opt / refine-level=5
Default : Yes
Forced : No
Audio #1
ID : 2
Format : AC-3
Format/Info : Audio Coding 3
Mode extension : CM (complete main)
Format settings, Endianness : Big
Codec ID : A_AC3
Duration : 2h 11mn
Bit rate mode : Constant
Bit rate : 640 Kbps
Channel(s) : 6 channels
Channel positions : Front: L C R, Side: L R, LFE
Sampling rate : 48.0 KHz
Frame rate : 31.250 fps (1536 spf)
Compression mode : Lossy
Stream size : 601 MiB (6%)
Title : Dub
Language : Russian
Default : Yes
Forced : No
Audio #2
ID : 3
Format : AAC
Format/Info : Advanced Audio Codec
Format profile : LC
Codec ID : A_AAC
Duration : 2h 11mn
Bit rate : 480 Kbps
Channel(s) : 6 channels
Channel positions : Front: L C R, Side: L R, LFE
Sampling rate : 48.0 KHz
Frame rate : 46.875 fps (1024 spf)
Compression mode : Lossy
Stream size : 451 MiB (4%)
Title : Original
Language : English
Default : No
Forced : No
Text #1
ID : 4
Format : UTF-8
Codec ID : S_TEXT/UTF8
Codec ID/Info : UTF-8 Plain Text
Duration : 2h 10mn
Bit rate : 2 bps
Count of elements : 46
Stream size : 1.98 KiB (0%)
Title : Forced
Language : Russian
Default : Yes
Forced : Yes
Text #2
ID : 5
Format : UTF-8
Codec ID : S_TEXT/UTF8
Codec ID/Info : UTF-8 Plain Text
Duration : 2h 10mn
Bit rate : 67 bps
Count of elements : 1650
Stream size : 64.7 KiB (0%)
Title : Full
Language : Russian
Default : No
Forced : No
Text #3
ID : 6
Format : UTF-8
Codec ID : S_TEXT/UTF8
Codec ID/Info : UTF-8 Plain Text
Duration : 2h 4mn
Bit rate : 55 bps
Count of elements : 1618
Stream size : 50.7 KiB (0%)
Title : Full
Language : English
Default : No
Forced : No
Menu
00:00:00.000 : en:00:00:00.000
00:09:09.132 : en:00:09:09.132
00:18:35.823 : en:00:18:35.823
00:23:04.341 : en:00:23:04.341
00:33:00.395 : en:00:33:00.395
00:42:44.896 : en:00:42:44.896
00:50:01.665 : en:00:50:01.665
01:01:09.666 : en:01:01:09.666
01:14:45.106 : en:01:14:45.106
01:22:21.311 : en:01:22:21.311
01:32:09.941 : en:01:32:09.941
01:41:55.609 : en:01:41:55.609
01:51:37.858 : en:01:51:37.858
01:59:21.029 : en:01:59:21.029
02:02:17.830 : en:02:02:17.830

x265

x265 [info]: HEVC encoder version 2.3+27-7e137e3ae083
x265 [info]: build info [Windows][GCC 5.3.1][64 bit] 10bit
x265 [info]: using cpu capabilities: MMX2 SSE2Fast SSSE3 SSE4.2 AVX AVX2 FMA3 LZCNT BMI2
x265 [info]: Main 10 profile, Level-4 (Main tier)
x265 [info]: Thread pool created using 4 threads
x265 [info]: Slices : 1
x265 [info]: frame threads / pool features : 2 / wpp(17 rows)
x265 [info]: Coding QT: max CU size, min CU size : 64 / 8
x265 [info]: Residual QT: max TU size, max depth : 32 / 4 inter / 4 intra
x265 [info]: ME / range / subpel / merge : star / 57 / 5 / 3
x265 [info]: Keyframe min / max / scenecut / bias: 23 / 250 / 40 / 5.00
x265 [info]: Lookahead / bframes / badapt : 60 / 10 / 2
x265 [info]: b-pyramid / weightp / weightb : 1 / 1 / 1
x265 [info]: References / ref-limit cu / depth : 4 / on / on
x265 [info]: AQ: mode / str / qg-size / cu-tree : 1 / 0.5 / 32 / 1
x265 [info]: Rate Control / qCompress : CRF-18.0 / 0.90
x265 [info]: tools: rd=4 psy-rd=1.00 rdoq=2 psy-rdoq=1.00 rskip limit-tu=4
x265 [info]: tools: signhide tmvp b-intra strong-intra-smoothing
x265 [info]: tools: deblock(tC=-3:B=-3)
x265 [info]: frame I: 2173, Avg QP:15.56 kb/s: 26205.11
x265 [info]: frame P: 49422, Avg QP:17.11 kb/s: 16438.35
x265 [info]: frame B: 137262, Avg QP:19.75 kb/s: 7007.67
x265 [info]: Weighted P-Frames: Y:3.7% UV:3.2%
x265 [info]: Weighted B-Frames: Y:6.1% UV:4.7%
x265 [info]: consecutive B-frames: 14.0% 7.3% 11.2% 52.4% 5.4% 4.8% 1.6% 3.0% 0.2% 0.1% 0.1%
encoded 188857 frames in 403097.63s (0.47 fps), 9696.47 kb/s, Avg QP:19.01
[Профиль] [ЛС]
Показать сообщения:    

Текущее время: Сегодня 00:12

Часовой пояс: GMT



Вы не можете начинать темы
Вы не можете отвечать на сообщения
Вы не можете редактировать свои сообщения
Вы не можете удалять свои сообщения
Вы не можете голосовать в опросах
Вы не можете прикреплять файлы к сообщениям
Вы не можете скачивать файлы