Тихое болото (Кузьма Кресницкий) [1979, Кукольный мультфильм, TVRip]

 
Автор Сообщение

painkiller ®

Стаж: 2 года 3 месяца

Сообщений: 582



Награды: Нет

Торрент-статистика

Создавать темы 27-Авг-2014 19:36

[Цитировать]

Тихое болото
Страна: СССР
Жанр: Кукольный мультфильм
Продолжительность: 00:09:40
Год выпуска: 1979
Русские субтитры: нет
Режиссёр: Кузьма Кресницкий
Описание: Мультипликационный фильм для детей о защите природы, об обитателях заповедных болот
Доп. информация: „Беларусьфильм“
Композитор:В.Кондрусевич
Оператор:Н.Скок
Монтаж:И.Волковой
Качество: TVRip
Формат: AVI
Видео: 720x544 (1.32:1), 25 fps, XviD Final 1.0 (build 34) ~2169 kbps avg, 0.22 bit/pixel
Аудио: 48 kHz, MPEG Layer 3, 2 ch, ~128.00 kbps avg
Субтитры: нет

Подробные технические данные

Format : AVIFormat/Info : Audio Video InterleaveFile size : 160 MiBDuration : 9mn 40sOverall bit rate : 2 307 KbpsWriting application : VirtualDubMod 1.5.4.1 (build 2178/release)Writing library : VirtualDubMod build 2178/release
VideoID : 0Format : MPEG-4 VisualFormat profile : Advanced Simple@L5Format settings, BVOP : 1Format settings, QPel : NoFormat settings, GMC : No warppointsFormat settings, Matrix : CustomCodec ID : XVIDCodec ID/Hint : XviDDuration : 9mn 40sBit rate : 2 170 KbpsWidth : 720 pixelsHeight : 544 pixelsDisplay aspect ratio : 4:3Frame rate : 25.000 fpsColor space : YUVChroma subsampling : 4:2:0Bit depth : 8 bitsScan type : ProgressiveCompression mode : LossyBits/(Pixel*Frame) : 0.222Stream size : 150 MiB (94%)Writing library : XviD 1.0.0 (UTC 2004-05-09)
AudioID : 1Format : MPEG AudioFormat version : Version 1Format profile : Layer 3Mode : Joint stereoMode extension : MS StereoCodec ID : 55Codec ID/Hint : MP3Duration : 9mn 40sBit rate mode : ConstantBit rate : 128 KbpsChannel(s) : 2 channelsSampling rate : 48.0 KHzCompression mode : LossyStream size : 8.85 MiB (6%)Alignment : Aligned on interleavesInterleave, duration : 40 ms (1.00 video frame)Interleave, preload duration : 504 ms

Скриншоты

[Профиль] [ЛС]
Кто просматривает тему:

Форум Тема Автор Размер
Фильмы 2014 года Тихое сердце / Stille hjerte (2014) HDRip | P BOSS 1.45 GB
Показать сообщения:    

Текущее время: Сегодня 17:41

Часовой пояс: GMT



Вы не можете начинать темы
Вы не можете отвечать на сообщения
Вы не можете редактировать свои сообщения
Вы не можете удалять свои сообщения
Вы не можете голосовать в опросах
Вы не можете прикреплять файлы к сообщениям
Вы не можете скачивать файлы