Тихая гора / The Silent Mountain (Эрнст Госснер / Ernst Gossner) [2014, Австрия, Италия, США, драма, мелодрама, приключения, военный, HDRip] VO (ИндивИдуалист)

 
Автор Сообщение

TorrentFilm ®

Пол:

Стаж: 2 года

Сообщений: 7741



Награды: Нет

Торрент-статистика

Создавать темы 01-Янв-2015 00:00

[Цитировать]

Тихая Гора / The Silent Mountain
«Любовь сильнее смерти».
Страна: Австрия, Италия, США
Жанр: драма, мелодрама, приключения, военный
Год выпуска: 2014
Продолжительность: 01:38:39
Перевод: Одноголосый, закадровый - ИндивИдуалист
Режиссёр: Эрнст Госснер / Ernst Gossner-В ролях: Уильям Моусли (Андер Грубер), Евгения Костантини (Франческа), Клаудия Кардинале, Вернер Даен, Коррадо Инверницци, Фриц Карл, Харольд Виндиш, Бриджитт ЯуфенталерОписание: Тироль. Габсбургская монархия. Австро-Венгрия. 1915 год. Андер Грубер - встречает свою первую любовь - итальянку Франческу Кальцолари.
Сестра Андера - Лиза выходит замуж за итальянца Анджело Кальцолари. Карл Грубер доволен зятем, ведь он инженер, который поможет воплотить его давнюю мечту - строительство первой канатной дороги.
И, казалось бы, жизнь идёт... но в один день зловещая новость о войне рушит всё! Вспышка фотокамеры знаменует начало войны между Италией и Австро-Венгрией. Мирное время сменяет хаос, страх, безумие, смех, предательство, боль, насилие!
Смерть, взрывы, стрельба, крики - жестокость...
Тишина становится наградой, а Любовь оказывается сильнее смерти.-Доп. информация: Переводчики фильма: Олеся Лисичникова, Динара Мамбетова и Егор Колодин.
Принимали участие в переводе: __Elizaveta__.
Редактура, озвучивание (включая работу со звуком), русификация постера, описание, видеорип: ИндивИдуалист
Помощь в обработке звука: Евгений Селихов
Эксклюзив! Впервые на русском языке!-Качество видео: HDRip
Формат видео: AVI
Видео: 688x288, 23.976fps, XviD 73 ~ 925kbps, 0.19 bit/pixel
Аудио: 48 kHz, МР3, 2/0 (L,R) ch, ~128.00 kbps avg [Одноголосый закадровый: ИндивИдуалист]
Отрывок | КиноПоиск | 1,5ГБ-От себя: Тихая гора - военная драма, в которой показана бессмыслица войны и хрупкость человеческой жизни в этом беспощадном месиве. Война рождает хаос, и в фильме Вы это увидите.
Съёмки фильма проходили на территории Доломитовых Альп. Место не только одно из самых живописных, но и самых кровопролитных. В ходе Первой мирвой войны фронт делил массив Альп на две части. Только в битве у горы Кол-ди-Лана погибло 6400 итальянских солдат и 1800 австрийских военнослужащих.Фильм стоящий, рекомендую! Надеюсь, Вам понравится!-Приятного просмотра!

Скриншоты


General
Complete name : D:\Тихая Гора-ИндивИдуалист (2014)-750.avi
Format : AVI
Format/Info : Audio Video Interleave
File size : 749 MiB
Duration : 1h 38mn
Overall bit rate : 1 062 Kbps
Writing application : VirtualDubModRus 1.5.10.2 (build 2542/release)
Writing library : VirtualDubMod build 2542/release
Video
ID : 0
Format : MPEG-4 Visual
Format profile : Advanced Simple@L5
Format settings, BVOP : 2
Format settings, QPel : No
Format settings, GMC : No warppoints
Format settings, Matrix : Custom
Codec ID : XVID
Codec ID/Hint : XviD
Duration : 1h 38mn
Bit rate : 925 Kbps
Width : 688 pixels
Height : 288 pixels
Display aspect ratio : 2.40:1
Frame rate : 23.976 fps
Color space : YUV
Chroma subsampling : 4:2:0
Bit depth : 8 bits
Scan type : Progressive
Compression mode : Lossy
Bits/(Pixel*Frame) : 0.195
Stream size : 652 MiB (87%)
Writing library : XviD 73
Audio
ID : 1
Format : MPEG Audio
Format version : Version 1
Format profile : Layer 3
Mode : Joint stereo
Codec ID : 55
Codec ID/Hint : MP3
Duration : 1h 38mn
Bit rate mode : Constant
Bit rate : 128 Kbps
Channel(s) : 2 channels
Sampling rate : 48.0 KHz
Compression mode : Lossy
Stream size : 90.3 MiB (12%)
Alignment : Aligned on interleaves
Interleave, duration : 42 ms (1.00 video frame)
Interleave, preload duration : 504 ms
[Профиль] [ЛС]
Показать сообщения:    

Текущее время: Сегодня 02:15

Часовой пояс: GMT



Вы не можете начинать темы
Вы не можете отвечать на сообщения
Вы не можете редактировать свои сообщения
Вы не можете удалять свои сообщения
Вы не можете голосовать в опросах
Вы не можете прикреплять файлы к сообщениям
Вы не можете скачивать файлы