Тихая война / Ting feng zhe (2012) BDRip 1080p by msltel

 
Автор Сообщение

sergej644 ®

Пол:

Стаж: 4 года 11 месяцев

Сообщений: 6046

Откуда: Soviet Union



Награды: Нет

Торрент-статистика

Создавать темы 31-Авг-2015 19:53

[Цитировать]

Название: Тихая война
Оригинальное название: Ting feng zhe
Год выпуска: 2012
Страна: Гонконг, Китай
Жанр: триллер, драма, криминал
Продолжительность: 01:59:53
Перевод: любительский двухголосый
Режиссёр: Феликс Чонг, Сиу Фай Мак
В ролях: Сюнь Чжоу, Тони Люн Чу Вай, Мевис Фэн, Ван Сюэбин, Йонг Донг, Lap-Man Sin, Вэй Лам, Кэрри ЭнДжи, Генри Фонг, Бай Жу
Описание: В 1950 году в республике Китай пришло к власти новое правительство. Революционеры в разных частях Китая стали организовывать заговоры с целью поднять восстание. Обстановка в стране стала неспокойной. В этих условиях возросла роль особого 701-го отдела, миссия которого состояла в слежке и сборе данных о вражеском заговоре, ведущимся посредством телеграфа. Внезапно 126 вражеских каналов пропадают, и отдел остается без данных… Теперь задача руководителя отдела и его подчинённых найти единственного человека, который сможет обнаружить каналы врага, — слепого настройщика фортепиано Хэ Бинга. На его розыски отправлена очаровательная и опасная шпионка Чан Сюэ-нин...

Качество: BDRip 1080p Сравнение с исходником
Формат: MKV
Видео: MPEG-4 AVC, 11.3 Mбит/с, 1920x816, 24 кадра/с
Аудио 1: русский, AC3, 384 kbps, 6 ch, 48 kHz [любительский двухголосый, den904 и DeadSno, перевод Skyworker]
Аудио 2: китайский, AC3, 448 kbps, 6 ch, 48 kHz [оригинал]

Инфо-файл

Общее
Уникальный идентификатор : 245622490464727140596237901066411048123 (0xB8C92BC2BAF53203B7EBC86D166DFCBB)
Полное имя : D:VideoТихая война.2012.BDRip.1080p.mkv
Формат : Matroska
Версия формата : Version 4 / Version 2
Размер файла : 10,3 Гбайт
Продолжительность : 1 ч. 59 м.
Общий поток : 12,3 Мбит/сек
Название фильма : BDRip -- STarankov
Дата кодирования : UTC 2015-08-25 01:50:11
Программа кодирования : mkvmerge v8.2.0 ('World of Adventure') 64bit
Библиотека кодирования : libebml v1.3.1 + libmatroska v1.4.2
DURATION : 01:59:52.896000000
NUMBER_OF_FRAMES : 224778
NUMBER_OF_BYTES : 402802176
_STATISTICS_WRITING_APP : mkvmerge v8.2.0 ('World of Adventure') 64bit
_STATISTICS_WRITING_DATE_UTC : 2015-08-25 01:50:11
_STATISTICS_TAGS : BPS DURATION NUMBER_OF_FRAMES NUMBER_OF_BYTES
Видео
Идентификатор : 1
Формат : AVC
Формат/Информация : Advanced Video Codec
Профиль формата : High@L4.1
Параметр CABAC формата : Да
Параметр ReFrames формата : 4 кадра
Идентификатор кодека : V_MPEG4/ISO/AVC
Продолжительность : 1 ч. 59 м.
Битрейт : 11,3 Мбит/сек
Ширина : 1920 пикселей
Высота : 816 пикселей
Соотношение сторон : 2,35:1
Режим частоты кадров : Постоянный
Частота кадров : 24,000 кадра/сек
Цветовое пространство : YUV
Субдискретизация насыщенности : 4:2:0
Битовая глубина : 8 бит
Тип развёртки : Прогрессивная
Бит/(Пиксели*Кадры) : 0.300
Размер потока : 9,43 Гбайт (91%)
Библиотека кодирования : x264 core 146 r2538 121396c
Настройки программы : cabac=1 / ref=4 / deblock=1:-1:-1 / analyse=0x3:0x113 / me=umh / subme=10 / psy=1 / psy_rd=1.00:0.15 / mixed_ref=1 / me_range=32 / chroma_me=1 / trellis=2 / 8x8dct=1 / cqm=0 / deadzone=21,11 / fast_pskip=1 / chroma_qp_offset=-3 / threads=6 / lookahead_threads=1 / sliced_threads=0 / nr=0 / decimate=1 / interlaced=0 / bluray_compat=0 / constrained_intra=0 / bframes=13 / b_pyramid=2 / b_adapt=2 / b_bias=0 / direct=1 / weightb=1 / open_gop=0 / weightp=2 / keyint=230 / keyint_min=23 / scenecut=40 / intra_refresh=0 / rc_lookahead=40 / rc=crf / mbtree=0 / crf=18.3 / qcomp=0.60 / qpmin=0 / qpmax=69 / qpstep=4 / vbv_maxrate=40000 / vbv_bufsize=50000 / crf_max=0.0 / nal_hrd=none / filler=0 / ip_ratio=1.40 / pb_ratio=1.30 / aq=1:1.00
Язык : Chinese
Default : Да
Forced : Нет
DURATION : 01:59:53.625000000
NUMBER_OF_FRAMES : 172647
NUMBER_OF_BYTES : 10345970233
_STATISTICS_WRITING_APP : mkvmerge v8.2.0 ('World of Adventure') 64bit
_STATISTICS_WRITING_DATE_UTC : 2015-08-25 01:50:11
_STATISTICS_TAGS : BPS DURATION NUMBER_OF_FRAMES NUMBER_OF_BYTES
Аудио #1
Идентификатор : 2
Формат : AC-3
Формат/Информация : Audio Coding 3
Расширение режима : CM (complete main)
Параметр Endianness формата : Big
Идентификатор кодека : A_AC3
Продолжительность : 1 ч. 59 м.
Вид битрейта : Постоянный
Битрейт : 384 Кбит/сек
Каналы : 6 каналов
Расположение каналов : Front: L C R, Side: L R, LFE
Частота : 48,0 КГц
Метод сжатия : С потерями
Размер потока : 329 Мбайт (3%)
Заголовок : DVO (любительский, den904 и DeadSno, перевод Skyworker)
Язык : Russian
Default : Да
Forced : Нет
Аудио #2
Идентификатор : 3
Формат : AC-3
Формат/Информация : Audio Coding 3
Расширение режима : CM (complete main)
Параметр Endianness формата : Big
Идентификатор кодека : A_AC3
Продолжительность : 1 ч. 59 м.
Вид битрейта : Постоянный
Битрейт : 448 Кбит/сек
Каналы : 6 каналов
Расположение каналов : Front: L C R, Side: L R, LFE
Частота : 48,0 КГц
Метод сжатия : С потерями
Размер потока : 384 Мбайт (4%)
Заголовок : Original
Язык : Chinese
Default : Нет
Forced : Нет

Скриншоты

[Профиль] [ЛС]
Показать сообщения:    

Текущее время: Сегодня 11:07

Часовой пояс: GMT



Вы не можете начинать темы
Вы не можете отвечать на сообщения
Вы не можете редактировать свои сообщения
Вы не можете удалять свои сообщения
Вы не можете голосовать в опросах
Вы не можете прикреплять файлы к сообщениям
Вы не можете скачивать файлы