Титaник 3Д /Titаnic 3D (Джеймс Кэмерон / James Cameron) [2012, Драма, Мелодрама , BDrip, 1080p] Anaglyph RAV / Анаглиф RAV

 
Автор Сообщение

TorrentFilm ®

Пол:

Стаж: 2 года

Сообщений: 7741



Награды: Нет

Торрент-статистика

Создавать темы 01-Янв-2016 00:08

[Цитировать]

Титaник 3D / Titаnic 3D
Год выпуска: 2012
Страна: США
Студия: 20th Century Fox, Paramount Pictures
Жанр: Драма, Мелодрама
Продолжительность: 03:14:49
Перевод: Профессиональный (дублированный)
Русские субтитры: есть
Режиссер на русском: Джеймс Кэмерон
Режиссер на английском: James Cameron
В ролях:
Джек Доусон - Леонардо ДиКаприо
Роуз ДеВитт Бьюкейтер - Кейт Уинслет
Кейлдон "Кэл" Хокли - Билли Зейн
Молли Браун - Кэти Бейтс
Рут ДеВитт Бьюкейтер - Фрэнсис Фишер
Роуз (в старости) - Глория Стюарт
Брок Лаветт - Билл Пэкстон
Капитан Эдвард Джеймс Смит - Бернард Хилл
Спайсер Лавджой - Дэвид Уорнер
Томас Эндрюс - Виктор Гарбер
Брюс Исмей - Джонатан Хайд
Лиззи Калверт - Сьюзи Эймис
Бобби Бьюэлл - Николас Каскон
Анатолий Михайлович - Анатолий Сагалевич
Фабрицио - Дэнни Нуччи
Томми Райан - Джейсон Бэрри
1-й офицер Мёрдок - Ивэн Стюарт
5-й офицер Гарольд Лоу - Йоан Гриффит
2-й офицер Лайтоллер - Джонатан Филлипс
Главный офицер Уайлд - Марк Линдсэй Чэпман
Квартирмейстер Роу - Ричард Грэхэм
Описание: Молодые влюбленные Джек и Роза находят друг друга в первом и последнем плавании «непотопляемого» Титаника. Они не могли знать, что шикарный лайнер столкнется с айсбергом в холодных водах Северной Атлантики, и их страстная любовь превратится в схватку со смертью…
Качество: BDrip
Контейнер: MKV
Формат 3D: Анаглиф red-cyan (RAV)
Видео кодек: x264
Аудио кодек: AC3
Видео: V_MPEG4/ISO/AVC, 1920х1080, 16:9, 23.976 fps, 13.5 Mbps
Аудио: Русский / Дубляж 1997г, 6 channels, 48.0 KHz, 448 Kbps
Аудио 2: Русский / Дубляж 2012г, 6 channels, 48.0 KHz, 640 Kbps
Аудио 3: English / Original 2012, 6 channels, 48.0 KHz, 640 Kbps
Субтитры: Русские форсированные
Бонус - Клип на песню Celine Dion - My Heart Will Go On (с отрывками из фильма) 2D

MediaInfo

General
Format : Matroska
Format version : Version 2
File size : 21.1 GiB
Duration : 3h 14mn
Overall bit rate : 15.5 Mbps
Encoded date : UTC 2012-09-29 06:10:04
Writing application : mkvmerge v4.4.0 ('Die Wiederkehr') сборка от Oct 31 2010 21:52:48
Writing library : libebml v1.0.0 + libmatroska v1.0.0
Video
ID : 1
Format : AVC
Format/Info : Advanced Video Codec
Format profile : High@L4.0
Format settings, CABAC : Yes
Format settings, ReFrames : 4 frames
Codec ID : V_MPEG4/ISO/AVC
Duration : 3h 14mn
Bit rate : 13.5 Mbps
Width : 1 920 pixels
Height : 1 080 pixels
Display aspect ratio : 16:9
Frame rate : 23.976 fps
Color space : YUV
Chroma subsampling : 4:2:0
Bit depth : 8 bits
Scan type : Progressive
Bits/(Pixel*Frame) : 0.272
Stream size : 18.4 GiB (87%)
Title : RAV-Anaglyph by Boss-Master
Writing library : x264 core 115 r1995 c1e60b9
Encoding settings : cabac=1 / ref=4 / deblock=1:-2:-2 / analyse=0x3:0x113 / me=umh / subme=9 / psy=1 / psy_rd=1.00:0.15 / mixed_ref=1 / me_range=16 / chroma_me=1 / trellis=2 / 8x8dct=1 / cqm=0 / deadzone=21,11 / fast_pskip=1 / chroma_qp_offset=-3 / threads=6 / sliced_threads=0 / nr=0 / decimate=1 / interlaced=0 / bluray_compat=0 / constrained_intra=0 / bframes=6 / b_pyramid=0 / b_adapt=2 / b_bias=0 / direct=3 / weightb=1 / open_gop=0 / weightp=2 / keyint=250 / keyint_min=23 / scenecut=40 / intra_refresh=0 / rc_lookahead=40 / rc=crf / mbtree=1 / crf=18.0 / qcomp=0.60 / qpmin=10 / qpmax=69 / qpstep=4 / ip_ratio=1.40 / aq=1:1.00
Default : Yes
Forced : No
Audio #1
ID : 2
Format : AC-3
Format/Info : Audio Coding 3
Mode extension : CM (complete main)
Codec ID : A_AC3
Duration : 3h 14mn
Bit rate mode : Constant
Bit rate : 448 Kbps
Channel(s) : 6 channels
Channel positions : Front: L C R, Side: L R, LFE
Sampling rate : 48.0 KHz
Bit depth : 16 bits
Compression mode : Lossy
Stream size : 624 MiB (3%)
Title : Дубляж 1997г
Language : Russian
Default : Yes
Forced : Yes
Audio #2
ID : 3
Format : AC-3
Format/Info : Audio Coding 3
Mode extension : CM (complete main)
Codec ID : A_AC3
Duration : 3h 14mn
Bit rate mode : Constant
Bit rate : 640 Kbps
Channel(s) : 6 channels
Channel positions : Front: L C R, Side: L R, LFE
Sampling rate : 48.0 KHz
Bit depth : 16 bits
Compression mode : Lossy
Stream size : 892 MiB (4%)
Title : Дубляж 2012г
Language : Russian
Default : No
Forced : No
Audio #3
ID : 4
Format : AC-3
Format/Info : Audio Coding 3
Mode extension : CM (complete main)
Codec ID : A_AC3
Duration : 3h 14mn
Bit rate mode : Constant
Bit rate : 640 Kbps
Channel(s) : 6 channels
Channel positions : Front: L C R, Side: L R, LFE
Sampling rate : 48.0 KHz
Bit depth : 16 bits
Compression mode : Lossy
Stream size : 892 MiB (4%)
Language : English
Default : No
Forced : No
Text
ID : 5
Format : UTF-8
Codec ID : S_TEXT/UTF8
Codec ID/Info : UTF-8 Plain Text
Title : Русские Форсированные
Language : Russian
Default : Yes
Forced : No

Скриншоты

Внимание! Для просмотра нужны анаглифные очки красно-синезеленые и обычный (не 3D) телевизор или монитор
Другие мои раздачи в Анаглифе Дюбуа и RAV
[Профиль] [ЛС]
Кто просматривает тему:

Показать сообщения:    

Текущее время: Сегодня 12:52

Часовой пояс: GMT



Вы не можете начинать темы
Вы не можете отвечать на сообщения
Вы не можете редактировать свои сообщения
Вы не можете удалять свои сообщения
Вы не можете голосовать в опросах
Вы не можете прикреплять файлы к сообщениям
Вы не можете скачивать файлы